.
Авторизация | Регистрация
Хочешь лучшие торренты? Добавь свой email!
Добавить
» » Няня / The Babysitter (2017) WEBRip 720p | L скачать торрент бесплатно




    Няня / The Babysitter (2017) WEBRip 720p | L скачать торрент бесплатно

    Опубликовал: Админ | Дата: 13-11-2017, 11:00 | Просмотров: 0



    Детально о кино
    Наименование: Няня
    Оригинальное наименование: The Babysitter
    Произведено: США
    Категория: ужасы
    Главный режиссер постановщик: МакДжи
    В главных ролях: Белла Торн, Самара Уивинг, Лесли Бибб, Робби Амелл, Хана Мэй Ли, Эмили Элин Линд, Эндрю Бэчелор, Джуда Льюис, Даг Хейли, Крис Уайлд

    Сюжет фильма

    Коул по уши влюблён в свою няню Би — красивую, весёлую, умную и уверенную в себе девушку. Однажды ночью мальчишка решает не ложиться спать и проследить за ней. Но события принимают неожиданный поворот: няня оказывается хладнокровной убийцей, служащей самому дьяволу.

    Файл
    Качество фильма: WEBRip 720p
    Информация о видео данные: MKV, 1280x536 (2.40: 1), 23.976 fps, 4000 Кбит/с
    Информация о звуке данные: Русский (AC3, 2 ch, 384 Кбит/с)
    Перевод текста: Любительский многоголосый двухголосый (GreenРай Studio)
    Время просмотра: 01: 25: 58
    Над релизом работали:
    Озвучили — Дмитрий Карабасов, Татьяна Трусевич и Нана Саркисян
    Mediainfo
    General
    Unique ID : 195373749385872410221429104998500149552 (0x92FB9D8CC05BA7A09F5D4EDB9C862930)
    Complete name : D: Рабочий столThe.Babysitter.2017.P.WEB-DL.720p.mkv
    Format : Matroska
    Format version : Version 4/Version 2
    File size : 2.57 GiB
    Duration : 1 h 25 min
    Overall bit rate mode : Constant
    Overall bit rate : 4 284 kb/s
    Encoded date : UTC 2017-11-09 09: 02: 10
    Writing application : mkvmerge v8.3.0 (;Over the Horizon;) 64bit
    Writing library : libebml v1.3.1 + libmatroska v1.4.2
    Video
    ID : 1
    Format : AVC
    Format/Info : Advanced Video Codec
    Format profile : Main@L3.1
    Format settings, CABAC : Yes
    Format settings, ReFrames : 3 frames
    Codec ID : V_MPEG4/ISO/AVC
    Duration : 1 h 25 min
    Bit rate mode : Constant
    Bit rate : 4 000 kb/s
    Width : 1 280 pixels
    Height : 536 pixels
    Display aspect ratio : 2.40: 1
    Frame rate mode : Constant
    Frame rate : 23.976 (23976/1000) FPS
    Standard : NTSC
    Color space : YUV
    Chroma subsampling : 4: 2: 0
    Bit depth : 8 bits
    Scan type : Progressive
    Bits/(Pixel*Frame) : 0.243
    Stream size : 2.34 GiB (91%)
    Language : English
    Default : Yes
    Forced : No
    Color range : Limited
    Audio
    ID : 2
    Format : AC-3
    Format/Info : Audio Coding 3
    Mode extension : CM (complete main)
    Format settings, Endianness : Big
    Codec ID : A_AC3
    Duration : 1 h 25 min
    Bit rate mode : Constant
    Bit rate : 384 kb/s
    Channel(s) : 2 channels
    Channel positions : Front: L R
    Sampling rate : 48.0 kHz
    Frame rate : 31.250 FPS (1536 spf)
    Compression mode : Lossy
    Stream size : 236 MiB (9%)
    Default : Yes
    Forced : No

    ВНИМАНИЕ! Присутствует реклама!
    Скриншоты

    Релиз подготовил:
    Размер скачиваемого торрента: 2.57 GB (2756759170 Bytes)

    Няня/The Babysitter (2017) WEBRip 720p | L
    загрузка...
    Рейтинг →
     (голосов: 1, оценка 4/5, голосовать можно 1 раз )

    Другие торренты по теме:

  • Приходящая няня / The Babysitter (1995) DVDRip
  • Приходящая няня / The Babysitter (1995) DVDRip от FilmRus | P
  • Приходящая няня / The Babysitter (1995) BDRip 720p | P, A
  • Няня / The Babysitter (2017) WEB-DLRip | L


    • Комментарии (0):

      Информация

      Информация

        Посетители, находящиеся в группе Гости, не могут оставлять комментарии в данной новости.

        ↓ Меню



        ↓ Опрос

        А Вы добавили сайт в закладки?
        Да
        Не


        Top 10 за месяц (Фильмы)