.
Авторизация | Регистрация
Хочешь лучшие торренты? Добавь свой email!
Добавить
» » Планета обезьян: Война / War for the Planet of the Apes (2017) BDRip 1080p от ExKinoRay | Лицензия скачать торрент бесплатно




    Планета обезьян: Война / War for the Planet of the Apes (2017) BDRip 1080p от ExKinoRay | Лицензия скачать торрент бесплатно

    Опубликовал: Админ | Дата: 17-10-2017, 11:00 | Просмотров: 2



    Детально о кино
    Русское название: Планета обезьян: Война
    Русское название в мировом прокате: War for the Planet of the Apes
    Создали в: 2017
    Категория жанра: Фантастика, боевик, триллер, приключения
    Главный режиссер: Мэтт Ривз

    Актеры
    Энди Серкис, Вуди Харрельсон, Стив Зан, Карин Коновал, Амайя Миллер, Терри Нотари, Тай Олссон, Майкл Адамуэйт, Тоби Кеббелл, Гэбриел Чаварриа
    О фильме:
    Армию генетически модифицированных обезьян ожидает новый вызов: они вынуждены вступить в смертельную схватку с армией людей под руководством безжалостного полковника. После невообразимых потерь среди своих воинов вождь обезьян Цезарь начинает личную борьбу с темными инстинктами и собирается отомстить за весь свой вид. В конце концов он и полковник должны будут сойтись в эпической битве, которая решит, кто теперь будет править на Земле — люди или обезьяны.

    Снималось в: США
    Киностудия: Chernin Entertainment, River Road Entertainment, TSG Entertainment
    Время просмотра: 02: 20: 10
    Перевод текста: Дублированный | Лицензия
    Файл
    Качество фильма: BDRip 1080p
    Информация о видео: MPEG-4 AVC, 1920x800, 11.0 Мbit/s, 23.976 fps
    Информация о звуке:
    Информация о звуке #01: 48 kHz, DTS, 5.1, 768 Kbps | Дублированный | RUS|
    Информация о звуке #02: 48 kHz, AC3, 5.1, 640 Kbps | Оригинал | ENG|
    Субтитры: Русские (forced, full), английские

    MI
    General
    Unique ID : 254466461820916487715711053610785890155 (0xBF707536BA1B54969C8604F159D2DF6B)
    Complete name : F: War.for.the.Planet.of.the.Apes.2017.Lic.BDRip.1080p.ExKinoRay.mkv
    Format : Matroska
    Format version : Version 4/Version 2
    File size : 12.1 GiB
    Duration : 2 h 20 min
    Overall bit rate : 12.4 Mb/s
    Encoded date : UTC 2017-10-17 00: 11: 00
    Writing application : mkvmerge v16.0.0 (;Protest;) 64-bit
    Writing library : libebml v1.3.5 + libmatroska v1.4.8
    Video
    ID : 1
    Format : AVC
    Format/Info : Advanced Video Codec
    Format profile : High@L4.1
    Format settings : CABAC/4 Ref Frames
    Format settings, CABAC : Yes
    Format settings, RefFrames : 4 frames
    Codec ID : V_MPEG4/ISO/AVC
    Duration : 2 h 20 min
    Bit rate : 11.0 Mb/s
    Width : 1 920 pixels
    Height : 800 pixels
    Display aspect ratio : 2.40: 1
    Frame rate mode : Constant
    Frame rate : 23.976 (24000/1001) FPS
    Color space : YUV
    Chroma subsampling : 4: 2: 0
    Bit depth : 8 bits
    Scan type : Progressive
    Bits/(Pixel*Frame) : 0.299
    Stream size : 10.8 GiB (89%)
    Writing library : x264 core 149 r2771+45 509cceb 7mod 8-bit@all X86_64
    Encoding settings : cabac=1/ref=4/deblock=1: -1: -1/analyse=0x3: 0x133/me=umh/subme=11/psy=1/fade_compensate=0.00/psy_rd=0.95: 0.10/mixed_ref=1/me_range=48/chroma_me=1/trellis=2/8x8dct=1/cqm=0/deadzone=21, 11/fast_pskip=0/chroma_qp_offset=-4/threads=12/lookahead_threads=2/sliced_threads=0/nr=0/decimate=1/interlaced=0/bluray_compat=0/constrained_intra=0/fgo=0/bframes=9/b_pyramid=2/b_adapt=2/b_bias=0/direct=3/weightb=1/open_gop=0/weightp=2/keyint=250/keyint_min=23/scenecut=40/intra_refresh=0/rc_lookahead=30/rc=2pass/mbtree=0/bitrate=11000/ratetol=1.0/qcomp=0.70/qpmin=0: 0: 0/qpmax=69: 69: 69/qpstep=4/cplxblur=20.0/qblur=0.5/vbv_maxrate=35000/vbv_bufsize=35000/nal_hrd=none/filler=0/ip_ratio=1.40/pb_ratio=1.30/aq=3: 1.00/aq-sensitivity=10.00/aq-factor=1.00: 1.00: 1.00/aq2=0/aq3=2: 0.50: 0.50: 0.50: 0.50: 0.50: 0.50: 0.50: 0.50/aq3-sensitivity=10.00/aq3-factor=1.00: 1.00: 1.00: 1.00: 1.00: 1.00/aq3-boundary=192: 64: 24
    Language : English
    Default : Yes
    Forced : No
    Audio #1
    ID : 2
    Format : DTS
    Format/Info : Digital Theater Systems
    Mode : 16
    Format settings, Endianness : Big
    Codec ID : A_DTS
    Duration : 2 h 20 min
    Bit rate mode : Constant
    Bit rate : 768 kb/s
    Channel(s) : 6 channels
    Channel positions : Front: L C R, Side: L R, LFE
    Sampling rate : 48.0 kHz
    Frame rate : 93.750 FPS (512 SPF)
    Bit depth : 24 bits
    Compression mode : Lossy
    Stream size : 770 MiB (6%)
    Title : Dub License
    Language : Russian
    Default : Yes
    Forced : No
    Audio #2
    ID : 3
    Format : AC-3
    Format/Info : Audio Coding 3
    Format settings, Endianness : Big
    Codec ID : A_AC3
    Duration : 2 h 20 min
    Bit rate mode : Constant
    Bit rate : 640 kb/s
    Channel(s) : 6 channels
    Channel positions : Front: L C R, Side: L R, LFE
    Sampling rate : 48.0 kHz
    Frame rate : 31.250 FPS (1536 SPF)
    Bit depth : 16 bits
    Compression mode : Lossy
    Stream size : 642 MiB (5%)
    Title : Original
    Language : English
    Service kind : Complete Main
    Default : No
    Forced : No
    Text #1
    ID : 4
    Format : UTF-8
    Codec ID : S_TEXT/UTF8
    Codec ID/Info : UTF-8 Plain Text
    Duration : 2 h 18 min
    Bit rate : 8 b/s
    Count of elements : 220
    Stream size : 8.96 KiB (0%)
    Title : Forced
    Language : Russian
    Default : Yes
    Forced : No
    Text #2
    ID : 5
    Format : UTF-8
    Codec ID : S_TEXT/UTF8
    Codec ID/Info : UTF-8 Plain Text
    Duration : 2 h 18 min
    Bit rate : 28 b/s
    Count of elements : 797
    Stream size : 28.5 KiB (0%)
    Title : Full
    Language : Russian
    Default : No
    Forced : No
    Text #3
    ID : 6
    Format : UTF-8
    Codec ID : S_TEXT/UTF8
    Codec ID/Info : UTF-8 Plain Text
    Duration : 2 h 8 min
    Bit rate : 16 b/s
    Count of elements : 748
    Stream size : 15.5 KiB (0%)
    Title : Full
    Language : English
    Default : No
    Forced : No
    Text #4
    ID : 7
    Format : UTF-8
    Codec ID : S_TEXT/UTF8
    Codec ID/Info : UTF-8 Plain Text
    Duration : 2 h 9 min
    Bit rate : 20 b/s
    Count of elements : 1010
    Stream size : 19.8 KiB (0%)
    Title : SDH
    Language : English
    Default : No
    Forced : No
    Menu
    00: 00: 00.000 : en: 00: 00: 00.000
    00: 05: 05.889 : en: 00: 05: 05.889
    00: 09: 06.713 : en: 00: 09: 06.713
    00: 12: 14.108 : en: 00: 12: 14.108
    00: 18: 21.017 : en: 00: 18: 21.017
    00: 25: 04.503 : en: 00: 25: 04.503
    00: 30: 17.399 : en: 00: 30: 17.399
    00: 34: 13.093 : en: 00: 34: 13.093
    00: 37: 46.347 : en: 00: 37: 46.347
    00: 42: 54.447 : en: 00: 42: 54.447
    00: 49: 31.802 : en: 00: 49: 31.802
    00: 54: 14.626 : en: 00: 54: 14.626
    00: 58: 49.818 : en: 00: 58: 49.818
    01: 05: 24.129 : en: 01: 05: 24.129
    01: 10: 18.381 : en: 01: 10: 18.381
    01: 14: 53.823 : en: 01: 14: 53.823
    01: 18: 59.193 : en: 01: 18: 59.193
    01: 25: 35.672 : en: 01: 25: 35.672
    01: 29: 37.372 : en: 01: 29: 37.372
    01: 34: 22.824 : en: 01: 34: 22.824
    01: 39: 27.712 : en: 01: 39: 27.712
    01: 43: 48.222 : en: 01: 43: 48.222
    01: 48: 45.394 : en: 01: 48: 45.394
    01: 55: 20.580 : en: 01: 55: 20.580
    01: 58: 04.703 : en: 01: 58: 04.703
    02: 02: 33.930 : en: 02: 02: 33.930
    02: 05: 54.797 : en: 02: 05: 54.797
    02: 12: 51.213 : en: 02: 12: 51.213

    Релиз подготовил: Автор релиза:
    Подпишись на меня, кликни по картинке :


    Онлайн видео Планета обезьян: Война


    Размер скачиваемого торрента: 12.14 GB (13039771550 Bytes)

    Планета обезьян: Война/War for the Planet of the Apes (2017) BDRip 1080p от ExKinoRay | Лицензия
    загрузка...
    Рейтинг →
     (голосов: 1, оценка 4/5, голосовать можно 1 раз )

    Другие торренты по теме:

  • Планета обезьян: Коллекция / Planet of the Apes: Collection (1968-1973) BDRip от CinemaClub
  • OST - Планета Обезьян / Planet Of The Apes (2012) MP3
  • Планета обезьян / Planet of the Apes (2001) BDRip 1080p от denis 100 | D,P,A
  • OST - Планета обезьян: Революция / Dawn of the Planet of the Apes (2014) MP3 от AGR - Generalfilm скачать через торрент бесплатно
  • Планета обезьян: Революция / Dawn of the Planet of the Apes (2014) CAMRip *PROPER* | Звук с TS
  • Планета обезьян: Революция / Dawn of the Planet of the Apes скачать через торрент бесплатно
  • Планета обезьян: Революция / Dawn of the Planet of the Apes (2014) WEB-DL 720p | Звук с TS
  • Планета обезьян: Революция / Dawn of the Planet of the Apes (2014) WEB-DLRip | Звук с TS


    • Комментарии (0):

      Информация

      Информация

        Посетители, находящиеся в группе Гости, не могут оставлять комментарии в данной новости.

        ↓ Меню



        ↓ Опрос

        А Вы добавили сайт в закладки?
        Да
        Не


        Top 10 за месяц (Фильмы)