.
Авторизация | Регистрация
Хочешь лучшие торренты? Добавь свой email!
Добавить
» » Пора таежного подснежника (1958) SATRip от New-Team скачать торрент бесплатно




    Пора таежного подснежника (1958) SATRip от New-Team скачать торрент бесплатно

    Опубликовал: Админ | Дата: 5-10-2017, 11:00 | Просмотров: 0



    Мы В КОНТАКТЕ

    Снималось в: СССР
    Создали в: Свердловская к/ст
    Категория жанра: драма
    Создали в: 1958
    Время просмотра: 01: 25: 17
    Перевод текста: Не требуется
    Субтитры подготовлены: нет
    Оригинальная аудиодорожка: русский
    Главный режиссер: Ярополк Лапшин

    Актеры

    Буда Вампилов, Мария Степанова, Найдан Гендунова, Валентина Дагбаева, Илларион Марактаев, Владимир Манкетов, Петр Николаев, Владимир Халматов, Юрий Леонидов (II), Раиса Куркина, Фёдор Сахиров, Буянто Аюшин, Цырен (Цыренжап) Шагжин, Бальжинима Ринчино...
    Об актёрах подробней
    Описание:
    Первые месяцы после Октябрьской революции. Небольшой красноармейский отряд останавливается на хуторе Ахсая, и, тем самым, вносит раздор в его семью. К своей невестке Дынсеме и ее маленькому брату Абидо старый Ахсай относится как к рабам. И совсем иное отношение они встречают со стороны красноармейцев. В их душах впервые пробуждается чувство достоинство. А между тем Гылык, муж Дынсеме, вместе с другим белогвардейцем из банды атамана Семенова, узнав, что отряд красноармейцев собирается вскоре продолжить свой путь, готовят план его истребления.



    Источник: DVB
    Качество фильма видео: SATRip
    Тип видео видео: AVI
    Информация о видео: 672x496 (4: 3), 25 fps, XviD ~ 1628 kbps avg, 0.195 bit/pixel
    Информация о звуке: 48 kHz, Dolby Digital AC3 2.0, 192 kbps
    Раздача от:
    MediaInfo

    Общее
    Полное имя : Pora.taezhnogo.podsnezhnika.1958.SATRip_New-team_by_AVP_Studio.avi
    Формат : AVI
    Формат/Информация : Audio Video Interleave
    Размер файла : 1, 09 Гбайт
    Продолжительность : 1 ч. 25 м.
    Общий поток : 1829 Кбит/сек
    Программа кодирования : VirtualDubMod 1.5.10.3 | www.virtualdub-fr.org || (build 2550/release)
    Библиотека кодирования : VirtualDubMod build 2550/release
    Видео
    Идентификатор : 0
    Формат : MPEG-4 Visual
    Профиль формата : Advanced Simple@L5
    Параметр BVOP формата : 1
    Параметр QPel формата : Нет
    Параметр GMC формата : Без точки перехода
    Параметр матрицы формата : Выборочная
    Идентификатор кодека : XVID
    Идентификатор кодека/Подсказка : XviD
    Продолжительность : 1 ч. 25 м.
    Битрейт : 1628 Кбит/сек
    Ширина : 672 пикселя
    Высота : 496 пикселей
    Соотношение сторон : 4: 3
    Частота кадров : 25, 000 кадров/сек
    Цветовое пространство : YUV
    Субдискретизация насыщенности : 4: 2: 0
    Битовая глубина : 8 бит
    Тип развёртки : Прогрессивная
    Метод сжатия : С потерями
    Бит/(Пиксели*Кадры) : 0.195
    Размер потока : 993 Мбайт (89%)
    Библиотека кодирования : XviD 73
    Аудио
    Идентификатор : 1
    Формат : AC-3
    Формат/Информация : Audio Coding 3
    Параметр Endianness формата : Big
    Идентификатор кодека : 2000
    Продолжительность : 1 ч. 25 м.
    Вид битрейта : Постоянный
    Битрейт : 192 Кбит/сек
    Каналы : 2 канала
    Расположение каналов : Front: L R
    Частота : 48, 0 КГц
    Частота кадров : 31, 250 кадров/сек (1536 SPF)
    Битовая глубина : 16 бит
    Метод сжатия : С потерями
    Размер потока : 117 Мбайт (10%)
    Выравнивание : Разделение по промежуткам
    Продолжительность промежутка : 40 мс. (1, 00 видеокадр)
    Время предзагрузки промежутка : 500 мс

    Скриншоты



    Залил: AVPStudio

    Онлайн видео Пора таежного подснежника (1958) SATRip от New


    Размер скачиваемого торрента: 1.09 GB (1170126848 Bytes)

    Пора таежного подснежника (1958) SATRip от New-Team
    загрузка...
    Рейтинг →
     (голосов: 1, оценка 5/5, голосовать можно 1 раз )

    Другие торренты по теме:

  • Пора таежного подснежника (1958) SATRip-AVC от New-Team


    • Комментарии (0):

      Информация

      Информация

        Посетители, находящиеся в группе Гости, не могут оставлять комментарии в данной новости.

        ↓ Меню



        ↓ Опрос

        А Вы добавили сайт в закладки?
        Да
        Не


        Top 10 за месяц (Фильмы)