.
Авторизация | Регистрация
Хочешь лучшие торренты? Добавь свой email!
Добавить
» » Взломщики / Медвежатники / Breaking In (1989) DVDRip | P, P2 скачать торрент бесплатно




    Взломщики / Медвежатники / Breaking In (1989) DVDRip | P, P2 скачать торрент бесплатно

    Опубликовал: Админ | Дата: 5-10-2017, 11:00 | Просмотров: 0



    Детально о кино
    Русское название: Медвежатники
    Русское название в мировом прокате: Breaking In
    Создали в: 1989
    Категория жанра: Kомедия, приключения
    Главный режиссер: Билл Форсайт

    Актеры
    Берт Рейнолдс, Кэйси Семашко, Шила Келли, Лоррейн Туссен, Альберт Сэлми, Гарри Кэри мл., Мори Чайкин, Стивен Тоболовски, Ричард Ки Джонс

    Сюжет фильма

    Легкая комедия об опытном, стареющем влзомщике сейфов Эрни. Он берет в ученики юного протеже, которому еще многому надо учиться не только по специальности, но и по жизни. Такой запоминающейся парочки воров мы, наверное, не видели со времен Буча Кэссиди и Сандэнса Кида. Остроумный и изобретательный сценарий Джона Сэйлза

    Снималось в: США
    Время просмотра: 01: 34: 18
    Перевод текста:
    (1): Профессиональный (многоголосый, закадровый)
    (2): Профессиональный (двухголосый, закадровый) НТВ+
    Сэмпл: https: //yadi.sk/i/eamQUvOZ3NC4xX
    Качество фильма видео: DVDRip Исходник
    Тип видео видео: AVI
    Кодек для видео: XviD
    Информация о видео: 672x400 (1.68: 1), 23.976 fps, XviD build 50 ~1681 kbps avg, 0.26 bit/pixel
    Информация о звуке: 48 kHz, AC3 Dolby Digital, 2/0 (L, R) ch, ~192 kbps Rus
    Информация о звуке 2: 48 kHz, AC3 Dolby Digital, 2/0 (L, R) ch, ~192 kbps Rus
    Информация о звуке 3: 48 kHz, AC3 Dolby Digital, 2/0 (L, R) Surround Encoded ch, ~192 kbps Eng
    MediaInfo

    Общее
    Полное имя : D: Breaking In (1989) DVDRip (2xRus, Eng).avi
    Формат : AVI
    Формат/Информация : Audio Video Interleave
    Размер файла : 1, 47 Гбайт
    Продолжительность : 1 ч. 32 м.
    Общий поток : 2278 Кбит/сек
    Название фильма : Breaking In (1989) DVDRip (2xRus, Eng)
    Режиссёр : Maksmet
    Программа кодирования : VirtualDubModRus 1.5.10.2 (build 2542/release)
    Формат оригинала/Имя : Movie
    Примечание : 21.09.2017
    Видео
    Идентификатор : 0
    Формат : MPEG-4 Visual
    Профиль формата : Advanced Simple@L5
    Параметр BVOP формата : 1
    Параметр QPel формата : Нет
    Параметр GMC формата : Без точки перехода
    Параметр матрицы формата : Выборочная
    Идентификатор кодека : XVID
    Идентификатор кодека/Подсказка : XviD
    Продолжительность : 1 ч. 32 м.
    Битрейт : 1683 Кбит/сек
    Ширина : 672 пикселя
    Высота : 400 пикселей
    Соотношение сторон : 5: 3
    Частота кадров : 23, 976 (24000/1001) кадра/сек
    Цветовое пространство : YUV
    Субдискретизация насыщенности : 4: 2: 0
    Битовая глубина : 8 бит
    Тип развёртки : Прогрессивная
    Метод сжатия : С потерями
    Бит/(Пиксели*Кадры) : 0.261
    Размер потока : 1, 09 Гбайт (74%)
    Библиотека кодирования : XviD 1.2.1 (UTC 2008-12-04)
    Аудио #1
    Идентификатор : 1
    Формат : AC-3
    Формат/Информация : Audio Coding 3
    Параметр Endianness формата : Big
    Идентификатор кодека : 2000
    Продолжительность : 1 ч. 32 м.
    Вид битрейта : Постоянный
    Битрейт : 192 Кбит/сек
    Каналы : 2 канала
    Расположение каналов : Front: L R
    Частота : 48, 0 КГц
    Частота кадров : 31, 250 кадров/сек (1536 SPF)
    Битовая глубина : 16 бит
    Метод сжатия : С потерями
    Размер потока : 127 Мбайт (8%)
    Выравнивание : Разделение по промежуткам
    Продолжительность промежутка : 42 мс. (1, 00 видеокадр)
    Время предзагрузки промежутка : 500 мс.
    ServiceKind/String : Complete Main
    Аудио #2
    Идентификатор : 2
    Формат : AC-3
    Формат/Информация : Audio Coding 3
    Параметр Endianness формата : Big
    Идентификатор кодека : 2000
    Продолжительность : 1 ч. 32 м.
    Вид битрейта : Постоянный
    Битрейт : 192 Кбит/сек
    Каналы : 2 канала
    Расположение каналов : Front: L R
    Частота : 48, 0 КГц
    Частота кадров : 31, 250 кадров/сек (1536 SPF)
    Битовая глубина : 16 бит
    Метод сжатия : С потерями
    Размер потока : 127 Мбайт (8%)
    Выравнивание : Разделение по промежуткам
    Продолжительность промежутка : 42 мс. (1, 00 видеокадр)
    Время предзагрузки промежутка : 500 мс.
    ServiceKind/String : Complete Main
    Аудио #3
    Идентификатор : 3
    Формат : AC-3
    Формат/Информация : Audio Coding 3
    Режим : Dolby Digital
    Параметр Endianness формата : Big
    Идентификатор кодека : 2000
    Продолжительность : 1 ч. 32 м.
    Вид битрейта : Постоянный
    Битрейт : 192 Кбит/сек
    Каналы : 2 канала
    Расположение каналов : Front: L R
    Частота : 48, 0 КГц
    Частота кадров : 31, 250 кадров/сек (1536 SPF)
    Битовая глубина : 16 бит
    Метод сжатия : С потерями
    Размер потока : 127 Мбайт (8%)
    Выравнивание : Разделение по промежуткам
    Продолжительность промежутка : 42 мс. (1, 00 видеокадр)
    Время предзагрузки промежутка : 500 мс.
    ServiceKind/String : Complete Main

    Скриншот c названием фильма



    Скриншоты



    Релиз подготовил:
    Залил: DiMk@™

    Онлайн видео Взломщики


    Размер скачиваемого торрента: 1.47 GB (1581912064 Bytes)

    Взломщики/Медвежатники/Breaking In (1989) DVDRip | P, P2
    загрузка...
    Рейтинг →
     (голосов: 1, оценка 5/5, голосовать можно 1 раз )

    Другие торренты по теме:

  • Взломщики / Медвежатники / Breaking In (1989) DVD5 | P, P2 | Custom


    • Комментарии (0):

      Информация

      Информация

        Посетители, находящиеся в группе Гости, не могут оставлять комментарии в данной новости.

        ↓ Меню



        ↓ Опрос

        А Вы добавили сайт в закладки?
        Да
        Не


        Top 10 за месяц (Фильмы)