.
Авторизация | Регистрация
Хочешь лучшие торренты? Добавь свой email!
Добавить
» » Поездка в Америку / Coming to America (1988) BDRip 720p by msltel | D, P, P2, A скачать торрент бесплатно




    Поездка в Америку / Coming to America (1988) BDRip 720p by msltel | D, P, P2, A скачать торрент бесплатно

    Опубликовал: Админ | Дата: 5-10-2017, 11:00 | Просмотров: 0



    Русское название: Поездка в Америку
    Русское название в мировом прокате: Coming To America
    Создали в: 1988
    Категория жанра: Драма, мелодрама, комедия
    Снималось в: США, Paramount Pictures
    Главный режиссер: Джон Лэндис

    Актеры
    Эдди Мёрфи, Арсенио Холл, Джеймс Эрл Джонс, Джон Эймос, Мэдж Синклер, Шари Хэдли, Пол Бейтс, Эрик Ла Салль, Фрэнки Фэйзон, Ванесса Белл Кэллоуэй, Луи Андерсон, Эллисон Дин, Шила Джонсон, Джейк Стайнфелд, Кэлвин Локхарт, Сэмюэл Л. Джексон, Стефани Саймон, Гарсель Бове, Вонди Куртис-Холл, Илэйн Каган, Дон Амичи, Ральф Беллами, Кьюба Гудинг мл., Рубен Сантьяго-Хадсон, Патриция Мэтьюз, Мэри Бонд Дэвис, Кара Янг, Джанетт Колон, Ванесса Колон, Миндора Миммс, Тоня Риверз, Стив Уайт, Хелен Хэнфт, Джим Абрахамс, Паула Браун, Стефани Кларк, Карла Эрл, Дебра Джонсон, Таня Линн Ли, Донна М. Перкинс, Рой Милтон Дэвис, Ник Сэвадж, Элисон Горди, Дориан ДеМишль, Скотт Пасто

    Сюжет фильма
    Наследный принц африканского государства хочет сам найти себе жену и едет для этого в Америку. Там он представляется обычным человеком и поступает на работу в закусочную, так как его выбор пал на дочь хозяина...
    Качество фильма: BDRip 720p
    Размер скачиваемого торрента: 7.61 ГБ
    Время просмотра: 01: 56: 49
    Информация о видео: MPEG-4 AVC, 5354 Кбит/с, 1280x720
    Информация о звуке 1: русский, 48 kHz, AC3, 6 ch, 448 kbps avg, Дублированный, с элементами MVO)
    Информация о звуке 2: русский, 48 kHz, AC3, 2 ch, 192 kbps avg, Профессиональный многоголосый, CTC
    Информация о звуке 3: русский, 48 kHz, AC3, 6 ch, 640 kbps avg, Авторский, Алексей Михалёв
    Внешние файлы
    Информация о звуке: русский, 48 kHz, AC3, 6 ch, 448 kbps avg, Профессиональный многоголосый, Юниверсал Пикчерс Рус
    Информация о звуке: русский, 48 kHz, AC3, 6 ch, 448 kbps avg, Профессиональный двухголосый, R5
    Информация о звуке: русский, 48 kHz, AC3, 2 ch, 192 kbps avg, Профессиональный двухголосый, HTB+
    Информация о звуке: русский, 48 kHz, AC3, 2 ch, 192 kbps avg, Профессиональный двухголосый, Премьер Видео
    Информация о звуке: русский, 48 kHz, AC3, 6 ch, 640 kbps avg, Авторский, Василий Горчаков
    Информация о звуке: русский, 48 kHz, AC3, 2 ch, 192 kbps avg, Авторский, Максим Латышев
    Информация о звуке: английский, 48 kHz, AC3, 6 ch, 448 kbps avg, Оригинал
    Субтитры: русские (DEM@N)
    Субтитры: английские
    Исходник: delo2006 (HDtracker)
    Сравнение с исходником

    Награды
    Оскар, 1989 год
    Номинации (2):
    Лучшие костюмы
    Лучший грим
    MediaInfo + Лог х264
    Общее
    Полное имя : E: VideoPoezdka v Ameriku.1988.x264.BDRip.720pPoezdka v Ameriku.1988.AVO.rus.В.Горчаков.ac3
    Формат : AC-3
    Формат/Информация : Audio Coding 3
    Размер файла : 535 Мбайт
    Продолжительность : 1 ч. 56 м.
    Режим общего битрейта : Постоянный
    Общий поток : 640 Кбит/сек
    Аудио
    Формат : AC-3
    Формат/Информация : Audio Coding 3
    Расширение режима : CM (complete main)
    Параметр Endianness формата : Big
    Продолжительность : 1 ч. 56 м.
    Вид битрейта : Постоянный
    Битрейт : 640 Кбит/сек
    Каналы : 6 каналов
    Расположение каналов : Front: L C R, Side: L R, LFE
    Частота : 48, 0 КГц
    Битовая глубина : 16 бит
    Метод сжатия : С потерями
    Размер потока : 535 Мбайт (100%)
    Общее
    Полное имя : E: VideoPoezdka v Ameriku.1988.x264.BDRip.720pPoezdka v Ameriku.1988.AVO.rus.М.Латышев.ac3
    Формат : AC-3
    Формат/Информация : Audio Coding 3
    Размер файла : 160 Мбайт
    Продолжительность : 1 ч. 56 м.
    Режим общего битрейта : Постоянный
    Общий поток : 192 Кбит/сек
    Аудио
    Формат : AC-3
    Формат/Информация : Audio Coding 3
    Расширение режима : CM (complete main)
    Параметр Endianness формата : Big
    Продолжительность : 1 ч. 56 м.
    Вид битрейта : Постоянный
    Битрейт : 192 Кбит/сек
    Каналы : 2 канала
    Расположение каналов : Front: L R
    Частота : 48, 0 КГц
    Битовая глубина : 16 бит
    Метод сжатия : С потерями
    Размер потока : 160 Мбайт (100%)
    Общее
    Полное имя : E: VideoPoezdka v Ameriku.1988.x264.BDRip.720pPoezdka v Ameriku.1988.DVO.rus.R5.ac3
    Формат : AC-3
    Формат/Информация : Audio Coding 3
    Размер файла : 374 Мбайт
    Продолжительность : 1 ч. 56 м.
    Режим общего битрейта : Постоянный
    Общий поток : 448 Кбит/сек
    Аудио
    Формат : AC-3
    Формат/Информация : Audio Coding 3
    Расширение режима : CM (complete main)
    Параметр Endianness формата : Big
    Продолжительность : 1 ч. 56 м.
    Вид битрейта : Постоянный
    Битрейт : 448 Кбит/сек
    Каналы : 6 каналов
    Расположение каналов : Front: L C R, Side: L R, LFE
    Частота : 48, 0 КГц
    Битовая глубина : 16 бит
    Метод сжатия : С потерями
    Размер потока : 374 Мбайт (100%)
    Общее
    Полное имя : E: VideoPoezdka v Ameriku.1988.x264.BDRip.720pPoezdka v Ameriku.1988.DVO.rus.НТВ+.ac3
    Формат : AC-3
    Формат/Информация : Audio Coding 3
    Размер файла : 160 Мбайт
    Продолжительность : 1 ч. 56 м.
    Режим общего битрейта : Постоянный
    Общий поток : 192 Кбит/сек
    Аудио
    Формат : AC-3
    Формат/Информация : Audio Coding 3
    Расширение режима : CM (complete main)
    Параметр Endianness формата : Big
    Продолжительность : 1 ч. 56 м.
    Вид битрейта : Постоянный
    Битрейт : 192 Кбит/сек
    Каналы : 2 канала
    Расположение каналов : Front: L R
    Частота : 48, 0 КГц
    Битовая глубина : 16 бит
    Метод сжатия : С потерями
    Размер потока : 160 Мбайт (100%)
    Общее
    Полное имя : E: VideoPoezdka v Ameriku.1988.x264.BDRip.720pPoezdka v Ameriku.1988.DVO.rus.Премьер Видео.ac3
    Формат : AC-3
    Формат/Информация : Audio Coding 3
    Размер файла : 160 Мбайт
    Продолжительность : 1 ч. 56 м.
    Режим общего битрейта : Постоянный
    Общий поток : 192 Кбит/сек
    Аудио
    Формат : AC-3
    Формат/Информация : Audio Coding 3
    Расширение режима : CM (complete main)
    Параметр Endianness формата : Big
    Продолжительность : 1 ч. 56 м.
    Вид битрейта : Постоянный
    Битрейт : 192 Кбит/сек
    Каналы : 2 канала
    Расположение каналов : Front: L R
    Частота : 44, 1 КГц
    Битовая глубина : 16 бит
    Метод сжатия : С потерями
    Размер потока : 160 Мбайт
    Общее
    Полное имя : E: VideoPoezdka v Ameriku.1988.x264.BDRip.720pPoezdka v Ameriku.1988.eng.srt
    Размер файла : 203 Кбайт
    Общее
    Полное имя : E: VideoPoezdka v Ameriku.1988.x264.BDRip.720pPoezdka v Ameriku.1988.MVO.rus.Юниверсал Пикчерс Рус.ac3
    Формат : AC-3
    Формат/Информация : Audio Coding 3
    Размер файла : 374 Мбайт
    Продолжительность : 1 ч. 56 м.
    Режим общего битрейта : Постоянный
    Общий поток : 448 Кбит/сек
    Аудио
    Формат : AC-3
    Формат/Информация : Audio Coding 3
    Расширение режима : CM (complete main)
    Параметр Endianness формата : Big
    Продолжительность : 1 ч. 56 м.
    Вид битрейта : Постоянный
    Битрейт : 448 Кбит/сек
    Каналы : 6 каналов
    Расположение каналов : Front: L C R, Side: L R, LFE
    Частота : 48, 0 КГц
    Битовая глубина : 16 бит
    Метод сжатия : С потерями
    Размер потока : 374 Мбайт (100%)
    Общее
    Полное имя : E: VideoPoezdka v Ameriku.1988.x264.BDRip.720pPoezdka v Ameriku.1988.Original.eng.ac3
    Формат : AC-3
    Формат/Информация : Audio Coding 3
    Размер файла : 374 Мбайт
    Продолжительность : 1 ч. 56 м.
    Режим общего битрейта : Постоянный
    Общий поток : 448 Кбит/сек
    Аудио
    Формат : AC-3
    Формат/Информация : Audio Coding 3
    Расширение режима : CM (complete main)
    Параметр Endianness формата : Big
    Продолжительность : 1 ч. 56 м.
    Вид битрейта : Постоянный
    Битрейт : 448 Кбит/сек
    Каналы : 6 каналов
    Расположение каналов : Front: L C R, Side: L R, LFE
    Частота : 48, 0 КГц
    Битовая глубина : 16 бит
    Метод сжатия : С потерями
    Размер потока : 374 Мбайт (100%)
    Общее
    Полное имя : E: VideoPoezdka v Ameriku.1988.x264.BDRip.720pPoezdka v Ameriku.1988.rus.DEM@N.srt
    Размер файла : 138 Кбайт
    Общее
    Уникальный идентификатор : 240249341975674284387147468874991381759 (0xB4BE57163C241422AEC4699CD4F5ACFF)
    Полное имя : E: VideoPoezdka v Ameriku.1988.x264.BDRip.720pPoezdka v Ameriku.1988.x264.BDRip.720p.mkv
    Формат : Matroska
    Версия формата : Version 4/Version 2
    Размер файла : 5, 52 Гбайт
    Продолжительность : 1 ч. 56 м.
    Общий поток : 6769 Кбит/сек
    Название фильма : Поездка в Америку/Coming to America/1988/BDRip -- STarankov
    Дата кодирования : UTC 2014-02-22 03: 15: 07
    Программа кодирования : mkvmerge v6.6.0 (;The Edge Of The In Between;) built on Dec 1 2013 17: 55: 00
    Библиотека кодирования : libebml v1.3.0 + libmatroska v1.4.1
    Видео
    Идентификатор : 1
    Формат : AVC
    Формат/Информация : Advanced Video Codec
    Профиль формата : High@L4.1
    Параметр CABAC формата : Да
    Параметр ReFrames формата : 9 кадров
    Идентификатор кодека : V_MPEG4/ISO/AVC
    Продолжительность : 1 ч. 56 м.
    Битрейт : 5354 Кбит/сек
    Ширина : 1280 пикселей
    Высота : 720 пикселей
    Соотношение сторон : 16: 9
    Режим частоты кадров : Постоянный
    Частота кадров : 23, 976 кадра/сек
    Цветовое пространство : YUV
    Субдискретизация насыщенности : 4: 2: 0
    Битовая глубина : 8 бит
    Тип развёртки : Прогрессивная
    Бит/(Пиксели*Кадры) : 0.242
    Размер потока : 4, 37 Гбайт (79%)
    Библиотека кодирования : x264 core 138 r2358 9e941d1
    Залил: msltel

    Онлайн видео Поездка в Америку


    Размер скачиваемого торрента: 7.61 GB (8172977544 Bytes)


    Поездка в Америку/Coming to America (1988) BDRip 720p by msltel | D, P, P2, A
    загрузка...
    Рейтинг →
     (голосов: 1, оценка 5/5, голосовать можно 1 раз )

    Другие торренты по теме:

  • Поездка в Америку / Coming to America (1988) DVD9 от Youtracker | P | Лицензия
  • Поездка в Америку / Coming to America (1988) ВDRip-AVC от Youtracker
  • Поездка в Америку / Coming to America (1988) ВDRip от Youtracker
  • Поездка в Америку / Coming to America (1988) ВDRip от New-team скачать через торрент бесплатно
  • Поездка в Америку / Coming To America (1988) HDDVDRip 1080p скачать через торрент бесплатно
  • Поездка в Америку / Coming To America (1988) BDRip от HQCLUB
  • Поездка в Америку / Coming to America (1988) BDRip-AVC от Leonardo and Scarabey


    • Комментарии (0):

      Информация

      Информация

        Посетители, находящиеся в группе Гости, не могут оставлять комментарии в данной новости.

        ↓ Меню



        ↓ Опрос

        А Вы добавили сайт в закладки?
        Да
        Не


        Top 10 за месяц (Фильмы)