.
Авторизация | Регистрация
Хочешь лучшие торренты? Добавь свой email!
Добавить
» » Ученик / Shagird (2011) HDTV 1080p от Generalfilm | P скачать торрент бесплатно




    Ученик / Shagird (2011) HDTV 1080p от Generalfilm | P скачать торрент бесплатно

    Опубликовал: Админ | Дата: 5-10-2017, 11:00 | Просмотров: 0



    Русское название: Ученик
    Русское название в мировом прокате: Shagird
    Создали в: 2011
    Категория жанра: Боевик, триллер, драма, криминал
    Снималось в: Индия, Faizel Production, Reliance Entertainment
    Главный режиссер: Тигманшу Дхулиа

    Актеры
    Нана Патекар, Мохит Ахлават, Рими Сен, Анураг Кашьяп, Закир Хуссэйн, Мастер Ахан Десаи, Асавари Джоши, Джай Калра, Джахандир Кхан, Муштак Кхан

    Сюжет фильма
    Криминальная драма из жизни двух офицеров отдела по борьбе с преступностью города Дели. Ханумант Сингх - офицер со стажем, чья тактика и этика более, чем сомнительна, и младший офицер Мохит, новичок, который имеет свои принципы. Ханумант Сингх и Бунти Бхая работают на большого и нечестного политика. По мере развития сюжета постепенно проясняются взаимосвязи между различными персонажами фильма.
    Качество фильма: HDTV 1080p
    Информация о видео: MPEG-4 AVC, ~ 10 Мбит/с, 1920x1080
    Информация о звуке: Русский, хинди (АС3, 2 ch, 192 Кбит/с)
    Время просмотра: 02: 08: 14
    Перевод текста: Профессиональный многоголосый | Ульпаней Эльром
    Релиз подготовил:
    МедиаИнфо
    General
    Unique ID : 236618370133609362834951943001334898685 (0xB2030A5A7D020586A23D5096E4045FFD)
    Complete name : D: торрентготовыеUchenik(2011)HDTV1080p.Generalfilm.mkv
    Format : Matroska
    Format version : Version 4/Version 2
    File size : 9.21 GiB
    Duration : 2h 8mn
    Overall bit rate mode : Constant
    Overall bit rate : 10.3 Mbps
    Encoded date : UTC 2017-09-27 06: 47: 17
    Writing application : mkvmerge v6.8.0 (;Theme for Great Cities;) 64bit built on Mar 2 2014 21: 34: 26
    Writing library : libebml v1.3.0 + libmatroska v1.4.1
    Video
    ID : 1
    Format : AVC
    Format/Info : Advanced Video Codec
    Format profile : High@L4.1
    Format settings, CABAC : Yes
    Format settings, ReFrames : 3 frames
    Format settings, GOP : M=3, N=33
    Codec ID : V_MPEG4/ISO/AVC
    Duration : 2h 8mn
    Bit rate mode : Constant
    Bit rate : 10 000 Kbps
    Width : 1 920 pixels
    Height : 1 080 pixels
    Display aspect ratio : 16: 9
    Frame rate mode : Constant
    Frame rate : 25.000 fps
    Standard : PAL
    Color space : YUV
    Chroma subsampling : 4: 2: 0
    Bit depth : 8 bits
    Scan type : Progressive
    Bits/(Pixel*Frame) : 0.193
    Stream size : 8.69 GiB (94%)
    Default : Yes
    Forced : No
    Color range : Limited
    Color primaries : BT.709
    Transfer characteristics : BT.709
    Matrix coefficients : BT.709
    Audio #1
    ID : 2
    Format : AC-3
    Format/Info : Audio Coding 3
    Mode extension : CM (complete main)
    Format settings, Endianness : Big
    Codec ID : A_AC3
    Duration : 2h 8mn
    Bit rate mode : Constant
    Bit rate : 192 Kbps
    Channel(s) : 2 channels
    Channel positions : Front: L R
    Sampling rate : 48.0 KHz
    Frame rate : 31.250 fps (1536 spf)
    Compression mode : Lossy
    Stream size : 176 MiB (2%)
    Language : Russian
    Default : Yes
    Forced : No
    Audio #2
    ID : 3
    Format : AC-3
    Format/Info : Audio Coding 3
    Mode extension : CM (complete main)
    Format settings, Endianness : Big
    Codec ID : A_AC3
    Duration : 2h 8mn
    Bit rate mode : Constant
    Bit rate : 192 Kbps
    Channel(s) : 2 channels
    Channel positions : Front: L R
    Sampling rate : 48.0 KHz
    Frame rate : 31.250 fps (1536 spf)
    Compression mode : Lossy
    Stream size : 176 MiB (2%)
    Language : Hindi
    Default : No
    Forced : No
    Скриншоты




    Онлайн видео Ученик


    Размер скачиваемого торрента: 9.21 GB (9893332197 Bytes)

    Ученик/Shagird (2011) HDTV 1080p от Generalfilm | P
    загрузка...
    Рейтинг →
     (голосов: 1, оценка 5/5, голосовать можно 1 раз )

    Другие торренты по теме:

  • Ученик / Shagird (2011) HDTVRip от Generalfilm | P


    • Комментарии (0):

      Информация

      Информация

        Посетители, находящиеся в группе Гости, не могут оставлять комментарии в данной новости.

        ↓ Меню



        ↓ Опрос

        А Вы добавили сайт в закладки?
        Да
        Не


        Top 10 за месяц (Фильмы)