.
Авторизация | Регистрация
Хочешь лучшие торренты? Добавь свой email!
Добавить
» » Близнец / The Twin / Le jumeau (1984) BDRip 720p | P скачать торрент бесплатно




    Близнец / The Twin / Le jumeau (1984) BDRip 720p | P скачать торрент бесплатно

    Опубликовал: Админ | Дата: 5-10-2017, 11:00 | Просмотров: 0



    Детально о кино
    Русское название: Близнец
    Русское название в мировом прокате: Le jumeau/The Twin
    Создали в: 1984
    Категория жанра: комедия
    Главный режиссер: Ив Робер

    Актеры
    Пьер Ришар, Жан-Пьер Кальфон, Камилла Мор, Кэри Мор, Жак Франц, Франсуаза Дорнер, Жан-Пьер Кастальди, Поль Ле Персон, Изабель Страва, Жан-Клод Буйо

    Сюжет фильма
    Проигравшись в карты, Ришар приезжает к другу в курортное местечко, где знакомится с красивой блондинкой-американкой, наследницей огромного состояния, Лиз Кернер.
    У Лиз оказалась сестра-близнец, Бетти, а Ришар после любви зачем-то брякнул, что у него тоже есть брат-близнец. Будучи игроком по натуре, он продолжил игру и после того, как стал любовником обеих сестричек. Сложности начинаются тогда, когда обе сестры заявили, что хотят выйти за него замуж, чтобы вступить в права наследства.

    Снималось в: Франция
    Киностудия: Fideline Films, Films de la Gu?ville
    Время просмотра: 01: 49: 32
    Перевод текста: Профессиональный (многоголосый, закадровый) CP-Digital + Профессиональный (многоголосый, закадровый) ТВЦ + Профессиональный (многоголосый, закадровый) ?
    Файл
    Качество фильма: BDRip 720p
    Тип видео: Matroska
    Информация о видео: 1196x720 at 24.000 fps, x264@L4.1, ~5876 kbps avg
    Информация о звуке#1: Russian: 48 kHz, AC3 Dolby Digital, 3/2 (L, C, R, l, r) + LFE ch, ~448 kbps avg |Многоголосый закадровый, CP-Digital|
    Информация о звуке#2: Russian: 48 kHz, AC3 Dolby Digital, 2/0 (L, R) ch, ~256 kbps avg |Многоголосый закадровый, ТВЦ|
    Информация о звуке#3: Russian: 48 kHz, AC3 Dolby Digital, 2/0 (L, R) ch, ~256 kbps avg |Многоголосый закадровый, ?|
    Информация о звуке#4: French: 48 kHz, AC3 Dolby Digital, 2/0 (L, R) ch, ~192 kbps avg
    Субтитры: None
    ***6.54-7.00 - остановка картинки. Замеченный дефект исходника.
    ***Релиз - msltel.
    Знаете ли вы, что...
    Аналогичный сюжет был обыгран в одной из мини-новелл американского сериала Байки из склепа (1989-1996) (Tales from the Crypt) Раздвоение личности (Split Personality) 1992, где роль афериста, представлявшего себя и своего брата, сыграл Джо Пеши. Однако, в духе сериала, финал был не столь оптимистичен: обнаружив обман сестры-близнецы Жаклин Ситрон и Кристен Ситрон распилили героя Пеши циркулярной пилой и взяли каждая себе по половинке.
    MediaInfo
    Общее
    Уникальный идентификатор : 211648747917342842129992807418783219965 (0x9F3A10EDEF7CFE15996EAC14C89640FD)
    Полное имя : Близнец.1984.BDRip.720p by msltel.mkv
    Формат : Matroska
    Версия формата : Version 4/Version 2
    Размер файла : 5, 49 Гбайт
    Продолжительность : 1 ч. 49 м.
    Общий поток : 7171 Кбит/сек
    Название фильма : Rip by msltel
    Дата кодирования : UTC 2017-10-04 02: 21: 50
    Программа кодирования : mkvmerge v8.2.0 (;World of Adventure;) 64bit
    Библиотека кодирования : libebml v1.3.1 + libmatroska v1.4.2
    Видео
    Идентификатор : 1
    Формат : AVC
    Формат/Информация : Advanced Video Codec
    Профиль формата : High@L4.1
    Параметр CABAC формата : Да
    Параметр ReFrames формата : 9 кадров
    Идентификатор кодека : V_MPEG4/ISO/AVC
    Продолжительность : 1 ч. 49 м.
    Битрейт : 5876 Кбит/сек
    Ширина : 1196 пикселей
    Высота : 720 пикселей
    Соотношение сторон : 1, 661
    Режим частоты кадров : Постоянный
    Частота кадров : 24, 000 кадра/сек
    Цветовое пространство : YUV
    Субдискретизация насыщенности : 4: 2: 0
    Битовая глубина : 8 бит
    Тип развёртки : Прогрессивная
    Бит/(Пиксели*Кадры) : 0.284
    Размер потока : 4, 50 Гбайт (82%)
    Библиотека кодирования : x264 core 146 r2538 121396c
    Настройки программы : cabac=1/ref=9/deblock=1: -3: -2/analyse=0x3: 0x113/me=umh/subme=11/psy=1/psy_rd=1.00: 0.15/mixed_ref=1/me_range=32/chroma_me=1/trellis=2/8x8dct=1/cqm=0/deadzone=21, 11/fast_pskip=0/chroma_qp_offset=-3/threads=6/lookahead_threads=1/sliced_threads=0/nr=0/decimate=1/interlaced=0/bluray_compat=0/constrained_intra=0/bframes=7/b_pyramid=2/b_adapt=2/b_bias=0/direct=1/weightb=1/open_gop=0/weightp=2/keyint=230/keyint_min=23/scenecut=40/intra_refresh=0/rc_lookahead=40/rc=crf/mbtree=0/crf=19.0/qcomp=0.60/qpmin=0/qpmax=69/qpstep=4/vbv_maxrate=62500/vbv_bufsize=78125/crf_max=0.0/nal_hrd=none/filler=0/ip_ratio=1.40/pb_ratio=1.30/aq=1: 1.00
    Язык : French
    Default : Да
    Forced : Нет
    Аудио #1
    Идентификатор : 2
    Формат : AC-3
    Формат/Информация : Audio Coding 3
    Расширение режима : CM (complete main)
    Параметр Endianness формата : Big
    Идентификатор кодека : A_AC3
    Продолжительность : 1 ч. 49 м.
    Вид битрейта : Постоянный
    Битрейт : 448 Кбит/сек
    Каналы : 6 каналов
    Расположение каналов : Front: L C R, Side: L R, LFE
    Частота : 48, 0 КГц
    Битовая глубина : 16 бит
    Метод сжатия : С потерями
    Размер потока : 351 Мбайт (6%)
    Заголовок : MVO.CP Digital
    Язык : Russian
    Default : Да
    Forced : Нет
    Аудио #2
    Идентификатор : 3
    Формат : AC-3
    Формат/Информация : Audio Coding 3
    Расширение режима : CM (complete main)
    Параметр Endianness формата : Big
    Идентификатор кодека : A_AC3
    Продолжительность : 1 ч. 49 м.
    Вид битрейта : Постоянный
    Битрейт : 256 Кбит/сек
    Каналы : 2 канала
    Расположение каналов : Front: L R
    Частота : 48, 0 КГц
    Битовая глубина : 16 бит
    Метод сжатия : С потерями
    Размер потока : 201 Мбайт (4%)
    Заголовок : MVO.ТВЦ
    Язык : Russian
    Default : Нет
    Forced : Нет
    Аудио #3
    Идентификатор : 4
    Формат : AC-3
    Формат/Информация : Audio Coding 3
    Расширение режима : CM (complete main)
    Параметр Endianness формата : Big
    Идентификатор кодека : A_AC3
    Продолжительность : 1 ч. 49 м.
    Вид битрейта : Постоянный
    Битрейт : 256 Кбит/сек
    Каналы : 2 канала
    Расположение каналов : Front: L R
    Частота : 48, 0 КГц
    Битовая глубина : 16 бит
    Метод сжатия : С потерями
    Размер потока : 201 Мбайт (4%)
    Заголовок : MVO
    Язык : Russian
    Default : Нет
    Forced : Нет
    Аудио #4
    Идентификатор : 5
    Формат : AC-3
    Формат/Информация : Audio Coding 3
    Расширение режима : CM (complete main)
    Параметр Endianness формата : Big
    Идентификатор кодека : A_AC3
    Продолжительность : 1 ч. 49 м.
    Вид битрейта : Постоянный
    Битрейт : 192 Кбит/сек
    Каналы : 2 канала
    Расположение каналов : Front: L R
    Частота : 48, 0 КГц
    Битовая глубина : 16 бит
    Метод сжатия : С потерями
    Размер потока : 150 Мбайт (3%)
    Заголовок : original
    Язык : French
    Default : Нет
    Forced : Нет
    Скриншоты


    Онлайн видео Близнец


    Размер скачиваемого торрента: 5.49 GB (5890660088 Bytes)

    Близнец/The Twin/Le jumeau (1984) BDRip 720p | P
    загрузка...
    Рейтинг →
     (голосов: 1, оценка 4/5, голосовать можно 1 раз )

    Другие торренты по теме:

  • Ив (Big Music) - Близнец (2013) MP3 от AGR - Generalfilm


    • Комментарии (0):

      Информация

      Информация

        Посетители, находящиеся в группе Гости, не могут оставлять комментарии в данной новости.

        ↓ Меню



        ↓ Опрос

        А Вы добавили сайт в закладки?
        Да
        Не


        Top 10 за месяц (Фильмы)