.
Авторизация | Регистрация
Хочешь лучшие торренты? Добавь свой email!
Добавить
» » Первый парень (1958) SATRip от New-Team скачать торрент бесплатно




    Первый парень (1958) SATRip от New-Team скачать торрент бесплатно

    Опубликовал: Админ | Дата: 19-09-2017, 11:00 | Просмотров: 11



    Мы В КОНТАКТЕ

    Снималось в: СССР
    Создали в: К/ст им. Довженко
    Категория жанра: комедия
    Создали в: 1958
    Время просмотра: 01: 20: 29
    Перевод текста: Не требуется
    Субтитры подготовлены: нет
    Оригинальная аудиодорожка: русский
    Главный режиссер: Сергей Параджанов

    Актеры

    Григорий Карпов, Людмила Сосюра, Юрий Сатаров, Валерия Коваленко, Андрей Андриенко-Земсков, Николай Шутько, Тамара Алексеева, Людмила Орлова (II), Михаил Крамар, Ярослав Сасько, Николай Яковченко, Юрий Цупко, Варвара Чайка, Иван Матвеев...
    Об актёрах подробней
    Описание:
    Сержант Данила, демобилизовавшись из армии, вернулся в свое село и, насмотревшись на скучающую молодежь, организовал строительство стадиона. Все парни стали активно заниматься спортом — гимнастикой, плаванием, футболом. И даже беспутный Юшка, который ранее развлекал ребят дикими шутками, за что и был прозван первым парнем и за что злилась на него любимая девушка Одарка Кучерявая, решил стать первым футболистом — и это у него, в конце концов, получилось.



    Источник: DVB
    Качество фильма видео: SATRip
    Тип видео видео: AVI
    Информация о видео: 640x480 (4: 3), 25 fps, XviD ~ 1157 kbps avg, 0.151 bit/pixel
    Информация о звуке: 48 kHz, MP3 2.0, 128 kbps
    Раздача от:
    MediaInfo

    Общее
    Полное имя : Pervyy.paren.1958.SATRip-745_New-team_by_AVP_Studio.avi
    Формат : AVI
    Формат/Информация : Audio Video Interleave
    Размер файла : 745 Мбайт
    Продолжительность : 1 ч. 20 м.
    Общий поток : 1295 Кбит/сек
    Программа кодирования : VirtualDubMod 1.5.10.3 | www.virtualdub-fr.org || (build 2550/release)
    Библиотека кодирования : VirtualDubMod build 2550/release
    Видео
    Идентификатор : 0
    Формат : MPEG-4 Visual
    Профиль формата : Advanced Simple@L5
    Параметр BVOP формата : 1
    Параметр QPel формата : Нет
    Параметр GMC формата : Без точки перехода
    Параметр матрицы формата : Выборочная
    Идентификатор кодека : XVID
    Идентификатор кодека/Подсказка : XviD
    Продолжительность : 1 ч. 20 м.
    Битрейт : 1157 Кбит/сек
    Ширина : 640 пикселей
    Высота : 480 пикселей
    Соотношение сторон : 4: 3
    Частота кадров : 25, 000 кадров/сек
    Цветовое пространство : YUV
    Субдискретизация насыщенности : 4: 2: 0
    Битовая глубина : 8 бит
    Тип развёртки : Прогрессивная
    Метод сжатия : С потерями
    Бит/(Пиксели*Кадры) : 0.151
    Размер потока : 666 Мбайт (89%)
    Библиотека кодирования : XviD 73
    Аудио
    Идентификатор : 1
    Формат : MPEG Audio
    Версия формата : Version 1
    Профиль формата : Layer 3
    Идентификатор кодека : 55
    Идентификатор кодека/Подсказка : MP3
    Продолжительность : 1 ч. 20 м.
    Вид битрейта : Постоянный
    Битрейт : 128 Кбит/сек
    Каналы : 2 канала
    Частота : 48, 0 КГц
    Метод сжатия : С потерями
    Размер потока : 73, 7 Мбайт (10%)
    Выравнивание : Соединение по промежуткам
    Продолжительность промежутка : 40 мс. (1, 00 видеокадр)
    Время предзагрузки промежутка : 504 мс.
    Библиотека кодирования : LAME3.99r
    Залил: AVPStudio

    Онлайн видео Первый парень (1958) SATRip от New


    Размер скачиваемого торрента: 745.23 MB (781430784 Bytes)


    Первый парень (1958) SATRip от New-Team
    загрузка...
    Рейтинг →
     (голосов: 1, оценка 3/5, голосовать можно 1 раз )

    Другие торренты по теме:

  • Сборник - Первый танцевальный, Vol. 14 (2017) MP3
  • Хорошо в первый раз / Puberty Blues (2012) DVDRip
  • Первый Новогодний вечер (2013) HDTV (1080i)
  • Первый Новогодний вечер (2013) SATRip
  • Первый Новогодний вечер с Максимом Галкиным и Владимиром Зеленским (2013) SATRip
  • OST - Капитан Америка: Первый Мститель / Captain America: The First Avenger (2011) MP3
  • Первый мститель / Captain America: The First Avenger (2011) BDRip 1080p от Youtracker | Лицензия
  • Люди Икс: Первый класс / X-Men: First Class (2011) HDRip-AVC


    • Комментарии (0):

      Информация

      Информация

        Посетители, находящиеся в группе Гости, не могут оставлять комментарии в данной новости.

        ↓ Меню



        ↓ Опрос

        А Вы добавили сайт в закладки?
        Да
        Не


        Top 10 за месяц (Фильмы)