.
Авторизация | Регистрация
Хочешь лучшие торренты? Добавь свой email!
Добавить
» » Целуя девушек / Kiss the Girls (1997) BDRip 720p | P, P2, A скачать торрент бесплатно




    Целуя девушек / Kiss the Girls (1997) BDRip 720p | P, P2, A скачать торрент бесплатно

    Опубликовал: Админ | Дата: 15-09-2017, 11:00 | Просмотров: 0



    Детально о кино
    Русское название: Целуя девушек
    Русское название в мировом прокате: Kiss the Girls
    Создали в: 1997
    Категория жанра: триллер, драма, криминал, детектив
    Главный режиссер: Гэри Фледер

    Актеры
    Морган Фриман, Эшли Джадд, Кэри Элвис, Алекс МакАртур, Тони Голдуин, Джей О. Сэндерс, Билл Нанн, Брайан Кокс, Ричард Т. Джонс, Рома Маффиа

    Сюжет фильма

    Похищено восемь молодых, красивых и талантливых женщин. Все они могут погибнуть, если полицейский Алекс Кросс не сможет обнаружить логово неуловимого маньяка, который называет себя Казанова.
    От городков Дальнего Юга до побережья Калифорнии разворачивается охота. Энергичной свидетельнице Кейт Мактайрнан единственной удаётся вырваться из лап Казановы, и теперь её цель — помочь Алексу освободить остальных жертв.

    Снималось в: США
    Киностудия: Paramount Pictures, Rysher Entertainment
    Время просмотра: 01: 55: 36
    Перевод текста: Профессиональный (многоголосый, закадровый), Профессиональный (двухголосый, закадровый), Авторский (одноголосый, закадровый)
    Файл
    Качество фильма: BDRip 720p
    Тип видео: Matroska
    Информация о видео: 1280x546 at 23.976 fps, x264@L4.1, ~4410 kbps
    Информация о звуке#1: Russian: 48 kHz, AC3, 3/2 (L, C, R, l, r) + LFE ch, ~448 kbps avg |Многоголосый закадровый, R5|
    Информация о звуке#2: Russian: 48 kHz, AC3, 2/0 (L, R) ch, ~192 kbps avg |Многоголосый закадровый, THT|
    Информация о звуке#3: Russian: 48 kHz, AC3, 3/2 (L, C, R, l, r) + LFE ch, ~448 kbps avg |Двухголосый закадровый|
    Информация о звуке#4: Russian: 48 kHz, AC3, 3/2 (L, C, R, l, r) + LFE ch, ~448 kbps avg |Двухголосый закадровый, HTB+|
    Информация о звуке#5: Russian: 48 kHz, AC3, 2/0 (L, R) ch, ~192 kbps avg |Двухголосый закадровый, Премьер Видео фильм|
    Информация о звуке#6: Russian: 48 kHz, AC3, 3/2 (L, C, R, l, r) + LFE ch, ~448 kbps avg |Авторский, А.Гаврилов|
    Информация о звуке#7: Russian: 48 kHz, AC3, 2/0 (L, R) ch, ~192 kbps avg |Авторский, Ю.Живов|
    Информация о звуке#8: Russian: 48 kHz, AC3, 3/2 (L, C, R, l, r) + LFE ch, ~448 kbps avg |Авторский, Д.Есарев|
    Информация о звуке#9: Russian: 48 kHz, AC3, 2/0 (L, R) ch, ~192 kbps avg |Авторский, А.Кашкин|
    Информация о звуке#10: Russian: 48 kHz, AC3, 2/0 (L, R) ch, ~192 kbps avg |Авторский, Н.Антонов|
    Информация о звуке#11: English: 48 kHz, AC3, 3/2 (L, C, R, l, r) + LFE ch, ~448 kbps avg
    Субтитры: Russian, English
    ***Сохранены оригинальные главы как на Blu-ray.
    ***Релиз - msltel.
    Знаете ли вы, что...
    Фильм снят по одноименному роману Джеймса Паттерсона, написанному в 1995 году. Это вторая книга о детективе Алексе Кроссе.
    MediaInfo
    Общее
    Уникальный идентификатор : 207399228666936985737572263764570434747 (0x9C07A3744B1E64AA910DFAD659906CBB)
    Полное имя : Целуя девушек.1997.BDRip.720p by msltel.mkv
    Формат : Matroska
    Версия формата : Version 4/Version 2
    Размер файла : 6, 64 Гбайт
    Продолжительность : 1 ч. 55 м.
    Общий поток : 8221 Кбит/сек
    Название фильма : Rip by msltel
    Дата кодирования : UTC 2017-09-14 02: 24: 58
    Программа кодирования : mkvmerge v8.2.0 (;World of Adventure;) 64bit
    Библиотека кодирования : libebml v1.3.1 + libmatroska v1.4.2
    Видео
    Идентификатор : 1
    Формат : AVC
    Формат/Информация : Advanced Video Codec
    Профиль формата : High@L4.1
    Параметр CABAC формата : Да
    Параметр ReFrames формата : 9 кадров
    Идентификатор кодека : V_MPEG4/ISO/AVC
    Продолжительность : 1 ч. 55 м.
    Битрейт : 4410 Кбит/сек
    Ширина : 1280 пикселей
    Высота : 546 пикселей
    Соотношение сторон : 2, 35: 1
    Режим частоты кадров : Постоянный
    Частота кадров : 23, 976 кадра/сек
    Цветовое пространство : YUV
    Субдискретизация насыщенности : 4: 2: 0
    Битовая глубина : 8 бит
    Тип развёртки : Прогрессивная
    Бит/(Пиксели*Кадры) : 0.263
    Размер потока : 3, 56 Гбайт (54%)
    Библиотека кодирования : x264 core 146 r2538 121396c
    Настройки программы : cabac=1/ref=9/deblock=1: -3: -2/analyse=0x3: 0x113/me=umh/subme=11/psy=1/psy_rd=1.00: 0.15/mixed_ref=1/me_range=32/chroma_me=1/trellis=2/8x8dct=1/cqm=0/deadzone=21, 11/fast_pskip=0/chroma_qp_offset=-3/threads=6/lookahead_threads=1/sliced_threads=0/nr=0/decimate=1/interlaced=0/bluray_compat=0/constrained_intra=0/bframes=8/b_pyramid=2/b_adapt=2/b_bias=0/direct=1/weightb=1/open_gop=0/weightp=2/keyint=230/keyint_min=23/scenecut=40/intra_refresh=0/rc_lookahead=40/rc=crf/mbtree=0/crf=18.0/qcomp=0.60/qpmin=0/qpmax=69/qpstep=4/vbv_maxrate=62500/vbv_bufsize=78125/crf_max=0.0/nal_hrd=none/filler=0/ip_ratio=1.40/pb_ratio=1.30/aq=1: 1.00
    Язык : English
    Default : Да
    Forced : Нет
    Аудио #1
    Идентификатор : 2
    Формат : AC-3
    Формат/Информация : Audio Coding 3
    Расширение режима : CM (complete main)
    Параметр Endianness формата : Big
    Идентификатор кодека : A_AC3
    Продолжительность : 1 ч. 55 м.
    Вид битрейта : Постоянный
    Битрейт : 448 Кбит/сек
    Каналы : 6 каналов
    Расположение каналов : Front: L C R, Side: L R, LFE
    Частота : 48, 0 КГц
    Битовая глубина : 16 бит
    Метод сжатия : С потерями
    Размер потока : 370 Мбайт (5%)
    Заголовок : MVO, R5
    Язык : Russian
    Default : Да
    Forced : Нет
    Аудио #2
    Идентификатор : 3
    Формат : AC-3
    Формат/Информация : Audio Coding 3
    Расширение режима : CM (complete main)
    Параметр Endianness формата : Big
    Идентификатор кодека : A_AC3
    Продолжительность : 1 ч. 55 м.
    Вид битрейта : Постоянный
    Битрейт : 192 Кбит/сек
    Каналы : 2 канала
    Расположение каналов : Front: L R
    Частота : 48, 0 КГц
    Битовая глубина : 16 бит
    Метод сжатия : С потерями
    Размер потока : 159 Мбайт (2%)
    Заголовок : MVO, THT
    Язык : Russian
    Default : Нет
    Forced : Нет
    Аудио #3
    Идентификатор : 4
    Формат : AC-3
    Формат/Информация : Audio Coding 3
    Расширение режима : CM (complete main)
    Параметр Endianness формата : Big
    Идентификатор кодека : A_AC3
    Продолжительность : 1 ч. 55 м.
    Вид битрейта : Постоянный
    Битрейт : 448 Кбит/сек
    Каналы : 6 каналов
    Расположение каналов : Front: L C R, Side: L R, LFE
    Частота : 48, 0 КГц
    Битовая глубина : 16 бит
    Метод сжатия : С потерями
    Размер потока : 370 Мбайт (5%)
    Заголовок : DVO
    Язык : Russian
    Default : Нет
    Forced : Нет
    Аудио #4
    Идентификатор : 5
    Формат : AC-3
    Формат/Информация : Audio Coding 3
    Расширение режима : CM (complete main)
    Параметр Endianness формата : Big
    Идентификатор кодека : A_AC3
    Продолжительность : 1 ч. 55 м.
    Вид битрейта : Постоянный
    Битрейт : 448 Кбит/сек
    Каналы : 6 каналов
    Расположение каналов : Front: L C R, Side: L R, LFE
    Частота : 48, 0 КГц
    Битовая глубина : 16 бит
    Метод сжатия : С потерями
    Размер потока : 370 Мбайт (5%)
    Заголовок : DVO, HTB+
    Язык : Russian
    Default : Нет
    Forced : Нет
    Аудио #5
    Идентификатор : 6
    Формат : AC-3
    Формат/Информация : Audio Coding 3
    Расширение режима : CM (complete main)
    Параметр Endianness формата : Big
    Идентификатор кодека : A_AC3
    Продолжительность : 1 ч. 55 м.
    Вид битрейта : Постоянный
    Битрейт : 192 Кбит/сек
    Каналы : 2 канала
    Расположение каналов : Front: L R
    Частота : 48, 0 КГц
    Битовая глубина : 16 бит
    Метод сжатия : С потерями
    Размер потока : 159 Мбайт (2%)
    Заголовок : DVO, Премьер Видео фильм
    Язык : Russian
    Default : Нет
    Forced : Нет
    Аудио #6
    Идентификатор : 7
    Формат : AC-3
    Формат/Информация : Audio Coding 3
    Расширение режима : CM (complete main)
    Параметр Endianness формата : Big
    Идентификатор кодека : A_AC3
    Продолжительность : 1 ч. 55 м.
    Вид битрейта : Постоянный
    Битрейт : 448 Кбит/сек
    Каналы : 6 каналов
    Расположение каналов : Front: L C R, Side: L R, LFE
    Частота : 48, 0 КГц
    Битовая глубина : 16 бит
    Метод сжатия : С потерями
    Размер потока : 370 Мбайт (5%)
    Заголовок : Андрей Гаврилов
    Язык : Russian
    Default : Нет
    Forced : Нет
    Аудио #7
    Идентификатор : 8
    Формат : AC-3
    Формат/Информация : Audio Coding 3
    Расширение режима : CM (complete main)
    Параметр Endianness формата : Big
    Идентификатор кодека : A_AC3
    Продолжительность : 1 ч. 55 м.
    Вид битрейта : Постоянный
    Битрейт : 192 Кбит/сек
    Каналы : 2 канала
    Расположение каналов : Front: L R
    Частота : 48, 0 КГц
    Битовая глубина : 16 бит
    Метод сжатия : С потерями
    Размер потока : 159 Мбайт (2%)
    Заголовок : Юрий Живов
    Язык : Russian
    Default : Нет
    Forced : Нет
    Аудио #8
    Идентификатор : 9
    Формат : AC-3
    Формат/Информация : Audio Coding 3
    Расширение режима : CM (complete main)
    Параметр Endianness формата : Big
    Идентификатор кодека : A_AC3
    Продолжительность : 1 ч. 55 м.
    Вид битрейта : Постоянный
    Битрейт : 448 Кбит/сек
    Каналы : 6 каналов
    Расположение каналов : Front: L C R, Side: L R, LFE
    Частота : 48, 0 КГц
    Битовая глубина : 16 бит
    Метод сжатия : С потерями
    Размер потока : 370 Мбайт (5%)
    Заголовок : Дмитрий Есарев
    Язык : Russian
    Default : Нет
    Forced : Нет
    Аудио #9
    Идентификатор : 10
    Формат : AC-3
    Формат/Информация : Audio Coding 3
    Расширение режима : CM (complete main)
    Параметр Endianness формата : Big
    Идентификатор кодека : A_AC3
    Продолжительность : 1 ч. 55 м.
    Вид битрейта : Постоянный
    Битрейт : 192 Кбит/сек
    Каналы : 2 канала
    Расположение каналов : Front: L R
    Частота : 48, 0 КГц
    Битовая глубина : 16 бит
    Метод сжатия : С потерями
    Размер потока : 159 Мбайт (2%)
    Заголовок : Александр Кашкин
    Язык : Russian
    Default : Нет
    Forced : Нет
    Аудио #10
    Идентификатор : 11
    Формат : AC-3
    Формат/Информация : Audio Coding 3
    Расширение режима : CM (complete main)
    Параметр Endianness формата : Big
    Идентификатор кодека : A_AC3
    Продолжительность : 1 ч. 55 м.
    Вид битрейта : Постоянный
    Битрейт : 192 Кбит/сек
    Каналы : 2 канала
    Расположение каналов : Front: L R
    Частота : 48, 0 КГц
    Битовая глубина : 16 бит
    Метод сжатия : С потерями
    Размер потока : 159 Мбайт (2%)
    Заголовок : Николай Антонов
    Язык : Russian
    Default : Нет
    Forced : Нет
    Аудио #11
    Идентификатор : 12
    Формат : AC-3
    Формат/Информация : Audio Coding 3
    Расширение режима : CM (complete main)
    Параметр Endianness формата : Big
    Идентификатор кодека : A_AC3
    Продолжительность : 1 ч. 55 м.
    Вид битрейта : Постоянный
    Битрейт : 448 Кбит/сек
    Каналы : 6 каналов
    Расположение каналов : Front: L C R, Side: L R, LFE
    Частота : 48, 0 КГц
    Битовая глубина : 16 бит
    Метод сжатия : С потерями
    Размер потока : 370 Мбайт (5%)
    Заголовок : original
    Язык : English
    Default : Нет
    Forced : Нет
    Текст #1
    Идентификатор : 13
    Формат : UTF-8
    Идентификатор кодека : S_TEXT/UTF8
    Идентификатор кодека/Информация : UTF-8 Plain Text
    Заголовок : русские
    Язык : Russian
    Default : Нет
    Forced : Нет
    Текст #2
    Идентификатор : 14
    Формат : UTF-8
    Идентификатор кодека : S_TEXT/UTF8
    Идентификатор кодека/Информация : UTF-8 Plain Text
    Заголовок : английские
    Язык : English
    Default : Нет
    Forced : Нет
    Меню
    00: 00: 00.000 : : Chapter 01
    00: 02: 31.151 : : Chapter 02
    00: 07: 45.715 : : Chapter 03
    00: 10: 00.224 : : Chapter 04
    00: 11: 13.756 : : Chapter 05
    00: 19: 16.530 : : Chapter 06
    00: 23: 37.874 : : Chapter 07
    00: 24: 59.873 : : Chapter 08
    00: 29: 10.206 : : Chapter 09
    00: 32: 42.752 : : Chapter 10
    00: 36: 04.328 : : Chapter 11
    00: 38: 06.367 : : Chapter 12
    00: 40: 59.957 : : Chapter 13
    00: 43: 34.320 : : Chapter 14
    00: 48: 11.096 : : Chapter 15
    00: 53: 24.826 : : Chapter 16
    00: 55: 58.438 : : Chapter 17
    00: 59: 20.765 : : Chapter 18
    01: 02: 31.706 : : Chapter 19
    01: 07: 51.650 : : Chapter 20
    01: 11: 04.635 : : Chapter 21
    01: 15: 28.857 : : Chapter 22
    01: 18: 48.890 : : Chapter 23
    01: 25: 22.826 : : Chapter 24
    01: 36: 29.867 : : Chapter 25
    01: 39: 23.791 : : Chapter 26
    01: 55: 36.304 : : Chapter 27
    Скриншоты


    Онлайн видео Целуя девушек


    Размер скачиваемого торрента: 6.64 GB (7128505732 Bytes)

    Целуя девушек/Kiss the Girls (1997) BDRip 720p | P, P2, A
    загрузка...
    Рейтинг →
     (голосов: 1, оценка 5/5, голосовать можно 1 раз )

    Другие торренты по теме:

  • Целуя девушек / Kiss the Girls (1997) WEB-DLRip от Leon-masl | P
  • Целуя девушек / Kiss the Girls (1997) BDRip 1080p от Freeisland
  • Целуя девушек / Kiss the Girls (1997) BDRip-AVC от 0ptimus | P, P2, A
  • Целуя девушек / Kiss the Girls (1997) BDRip от HQCLUB
  • Целуя девушек / Kiss the Girls (1997) BDRip-AVC | P скачать через торрент бесплатно
  • Целуя девушек / Kiss the Girls (1997) BDRip 720p | P скачать через торрент бесплатно
  • Целуя девушек / Kiss the Girls (1997) HDRip от Scarabey | Р


    • Комментарии (0):

      Информация

      Информация

        Посетители, находящиеся в группе Гости, не могут оставлять комментарии в данной новости.

        ↓ Меню



        ↓ Опрос

        А Вы добавили сайт в закладки?
        Да
        Не


        Top 10 за месяц (Фильмы)