.
Авторизация | Регистрация
Хочешь лучшие торренты? Добавь свой email!
Добавить




Мамлюк (1958) DVDRip от New-Team скачать торрент бесплатно

Опубликовал: Админ | Дата: 10-09-2017, 14:47 | Просмотров: 0



Мы В КОНТАКТЕ

Снималось в: СССР
Создали в: Грузия-фильм
Категория жанра: боевик, мелодрама, приключения, военный
Создали в: 1958
Время просмотра: 01: 34: 29
Перевод текста: Не требуется
Субтитры подготовлены: нет
Оригинальная аудиодорожка: русский
Главный режиссер: Давид Рондели

Актеры

Дато Данелия, Отар Коберидзе, В. Джоджуа, Манана Лондаридзе, Акакий Хорава, Лия Элиава, Георгий Шавгулидзе, Дудухана Церодзе, Михаил Вашадзе, Эдишер Магалашвили, Бухути Закариадзе, Верико Анджапаридзе, Зураб Лаперадзе, Шакро Гомелаури, Григол Костава, Гурам Сагарадзе, Тариэль Сакварелидзе, Владислав Вашадзе...
Об актёрах подробней
Описание:
Грузия. Вторая половина XVIII века. Чужеземцы похищают детей, чтобы продать в рабство, сделать из них со временем верных и безжалостных воинов. Такая участь постигла Хвичу, который стал доблестным египетским мамлюком Махмудом. Однажды во время битвы воин услышал предсмертный крик на непонятном, но чем-то волнующем его языке…



Источник: DVD9 R5
Качество фильма видео: DVDRip
Тип видео видео: AVI
Информация о видео: 720x544 (4: 3), 25 fps, XviD ~ 1753 kbps avg, 0.179 bit/pixel
Информация о звуке: 48 kHz, Dolby Digital AC3 5.1, 448 kbps
Информация о звуке: 48 kHz, Dolby Digital AC3 5.1, 448 kbps Английский
Информация о звуке: 48 kHz, Dolby Digital AC3 5.1, 448 kbps Французский
Раздача от:
MediaInfo

Общее
Полное имя : Mamlyuk.1958.DVDRip_New-team_by_AVP_Studio.avi
Формат : AVI
Формат/Информация : Audio Video Interleave
Размер файла : 1, 46 Гбайт
Продолжительность : 1 ч. 34 м.
Общий поток : 2211 Кбит/сек
Программа кодирования : VirtualDubMod 1.5.10.3 | www.virtualdub-fr.org || (build 2550/release)
Библиотека кодирования : VirtualDubMod build 2550/release
Видео
Идентификатор : 0
Формат : MPEG-4 Visual
Профиль формата : Advanced Simple@L5
Параметр BVOP формата : 1
Параметр QPel формата : Нет
Параметр GMC формата : Без точки перехода
Параметр матрицы формата : Выборочная
Идентификатор кодека : XVID
Идентификатор кодека/Подсказка : XviD
Продолжительность : 1 ч. 34 м.
Битрейт : 1753 Кбит/сек
Ширина : 720 пикселей
Высота : 544 пикселя
Соотношение сторон : 4: 3
Частота кадров : 25, 000 кадров/сек
Цветовое пространство : YUV
Субдискретизация насыщенности : 4: 2: 0
Битовая глубина : 8 бит
Тип развёртки : Прогрессивная
Метод сжатия : С потерями
Бит/(Пиксели*Кадры) : 0.179
Размер потока : 1, 16 Гбайт (79%)
Библиотека кодирования : XviD 73
Аудио
Идентификатор : 1
Формат : AC-3
Формат/Информация : Audio Coding 3
Параметр Endianness формата : Big
Идентификатор кодека : 2000
Продолжительность : 1 ч. 34 м.
Вид битрейта : Постоянный
Битрейт : 448 Кбит/сек
Каналы : 6 каналов
Расположение каналов : Front: L C R, Side: L R, LFE
Частота : 48, 0 КГц
Частота кадров : 31, 250 кадров/сек (1536 SPF)
Битовая глубина : 16 бит
Метод сжатия : С потерями
Размер потока : 303 Мбайт (20%)
Выравнивание : Разделение по промежуткам
Продолжительность промежутка : 40 мс. (1, 00 видеокадр)
Время предзагрузки промежутка : 500 мс

Скриншоты



Залил: AVPStudio

Онлайн видео Мамлюк (1958) DVDRip от New


Размер скачиваемого торрента: 1.46 GB (1566679040 Bytes)

Мамлюк (1958) DVDRip от New-Team
загрузка...
Рейтинг →
 (голосов: 1, оценка 5/5, голосовать можно 1 раз )

Другие торренты по теме:

  • Мамлюк / 1958 / РУ, СТ / DVDRip (AVC)
  • Мамлюк (1958) DVDRip-AVC от New-Team


    • Комментарии (0):

      Информация

      Информация

        Посетители, находящиеся в группе Гости, не могут оставлять комментарии в данной новости.

        ↓ Меню



        ↓ Опрос

        А Вы добавили сайт в закладки?
        Да
        Не


        Top 10 за месяц (Фильмы)