.
Авторизация | Регистрация
Хочешь лучшие торренты? Добавь свой email!
Добавить
» » На дальних берегах (1958) DVDRip от New-Team скачать торрент бесплатно




    На дальних берегах (1958) DVDRip от New-Team скачать торрент бесплатно

    Опубликовал: Админ | Дата: 10-09-2017, 14:47 | Просмотров: 0



    Мы В КОНТАКТЕ

    Снималось в: СССР
    Создали в: Бакинская киностудия
    Категория жанра: боевик, приключения, биография
    Создали в: 1958
    Время просмотра: 01: 27: 18
    Перевод текста: Не требуется
    Субтитры подготовлены: нет
    Оригинальная аудиодорожка: русский
    Главный режиссер: Давид Рондели

    Актеры

    Нодар Шашик-оглы, Юрий Боголюбов, Агния Елекоева, Алескер Гаджи Алекперов, Лев Бордуков, Андрей Файт, Григорий Шпигель, Николай Боголюбов, Адиль Искендеров, Марина Фигнер, Валдемарс Зандбергс...
    Об актёрах подробней
    Описание:
    По одноименной повести Имрана Касумова и Гасана Сеидбейли.
    Гестапо Триеста сбилось с ног в поисках неуловимого и смелого партизана-разведчика по прозвищу Михайло. Он появлялся в городе в форме немецкого офицера, совершал невероятно дерзкие акции и исчезал невредимым, оставляя фашистов в дураках. Взрыв Зольдатенхайма, кинотеатра, офицерского казино, железнодорожного моста, эшелона с гитлеровцами...



    Источник: DVD5 R5
    Качество фильма видео: DVDRip
    Тип видео видео: AVI
    Информация о видео: 640x480 (4: 3), 25 fps, XviD ~ 1056 kbps avg, 0.137 bit/pixel
    Информация о звуке: 48 kHz, MP3 2.0, 128 kbps
    Раздача от:
    MediaInfo

    Общее
    Полное имя : Na.dalnih.beregah.1958.DVDRip-745_New-team_by_AVP_Studio.avi
    Формат : AVI
    Формат/Информация : Audio Video Interleave
    Размер файла : 745 Мбайт
    Продолжительность : 1 ч. 27 м.
    Общий поток : 1194 Кбит/сек
    Программа кодирования : VirtualDubMod 1.5.10.3 | www.virtualdub-fr.org || (build 2550/release)
    Библиотека кодирования : VirtualDubMod build 2550/release
    Видео
    Идентификатор : 0
    Формат : MPEG-4 Visual
    Профиль формата : Advanced Simple@L5
    Параметр BVOP формата : 1
    Параметр QPel формата : Нет
    Параметр GMC формата : Без точки перехода
    Параметр матрицы формата : Выборочная
    Идентификатор кодека : XVID
    Идентификатор кодека/Подсказка : XviD
    Продолжительность : 1 ч. 27 м.
    Битрейт : 1056 Кбит/сек
    Ширина : 640 пикселей
    Высота : 480 пикселей
    Соотношение сторон : 4: 3
    Частота кадров : 25, 000 кадров/сек
    Цветовое пространство : YUV
    Субдискретизация насыщенности : 4: 2: 0
    Битовая глубина : 8 бит
    Тип развёртки : Прогрессивная
    Метод сжатия : С потерями
    Бит/(Пиксели*Кадры) : 0.137
    Размер потока : 659 Мбайт (88%)
    Библиотека кодирования : XviD 73
    Аудио
    Идентификатор : 1
    Формат : MPEG Audio
    Версия формата : Version 1
    Профиль формата : Layer 3
    Идентификатор кодека : 55
    Идентификатор кодека/Подсказка : MP3
    Продолжительность : 1 ч. 27 м.
    Вид битрейта : Постоянный
    Битрейт : 128 Кбит/сек
    Каналы : 2 канала
    Частота : 48, 0 КГц
    Метод сжатия : С потерями
    Размер потока : 79, 9 Мбайт (11%)
    Выравнивание : Соединение по промежуткам
    Продолжительность промежутка : 40 мс. (1, 00 видеокадр)
    Время предзагрузки промежутка : 504 мс.
    Библиотека кодирования : LAME3.99r
    Залил: AVPStudio

    Онлайн видео На дальних берегах (1958) DVDRip от New


    Размер скачиваемого торрента: 745.33 MB (781533184 Bytes)


    На дальних берегах (1958) DVDRip от New-Team
    загрузка...
    Рейтинг →
     (голосов: 1, оценка 5/5, голосовать можно 1 раз )

    Другие торренты по теме:

  • Три богатыря на дальних берегах (2012) CAMRip
  • Три богатыря на дальних берегах (2012) DVDRip | КПК
  • Три богатыря на дальних берегах (2012) DVD5 R5 от Youtracker
  • Три богатыря на дальних берегах (2012) DVDRip от Youtracker | Лицензия
  • Три богатыря на дальних берегах (2012) DVDRip-AVC от Youtracker
  • Три богатыря на дальних берегах (2012) DVDRip от Generalfilm | КПК | Лицензия
  • Три богатыря на дальних берегах (2012) DVDRip-AVC от FREEISLAND
  • Три богатыря на дальних берегах (2012) BDRip 1080p | Лицензия


    • Комментарии (0):

      Информация

      Информация

        Посетители, находящиеся в группе Гости, не могут оставлять комментарии в данной новости.

        ↓ Меню



        ↓ Опрос

        А Вы добавили сайт в закладки?
        Да
        Не


        Top 10 за месяц (Фильмы)