.
Авторизация | Регистрация
Хочешь лучшие торренты? Добавь свой email!
Добавить
» » Ночной гость (1958) DVDRip от New-Team скачать торрент бесплатно




    Ночной гость (1958) DVDRip от New-Team скачать торрент бесплатно

    Опубликовал: Админ | Дата: 10-09-2017, 14:47 | Просмотров: 0



    Мы В КОНТАКТЕ

    Снималось в: СССР
    Создали в: Ленфильм
    Категория жанра: драма
    Создали в: 1958
    Время просмотра: 00: 54: 51
    Перевод текста: Не требуется
    Субтитры подготовлены: нет
    Оригинальная аудиодорожка: русский
    Главный режиссер: Владимир Шредель

    Актеры

    Иннокентий Смоктуновский, Александра Панова, Любовь Соколова, Валентина Пугачёва, Николай Елизаров, Георгий Жжёнов, Михаил Глузский, Игорь Ефимов, Таня Хабло, Юра Лепешкин...
    Об актёрах подробней
    Описание:
    Телефильм по мотивам одноименного рассказа Ю.Нагибина.
    Рыболовы-любители - художник Сергей и полковник в отставке Николай Семёнович - останавливаются в небольшом домике на берегу красивого озера. В доме живут бабка Юля с дочерью Катериной (Любовь Соколова), недавно ушедшей от пьяницы-мужа (Михаил Глузский), и двумя ее маленькими детьми. Поздним вечером появляется еще один постоялец, сорокалетний Пал Палыч (Иннокентий Смоктуновский), - и теперь все внимание хозяев направлено в его сторону...



    Источник: DVD5 R5
    Качество фильма видео: DVDRip
    Тип видео видео: AVI
    Информация о видео: 704x528 (4: 3), 25 fps, XviD ~ 1692 kbps avg, 0.182 bit/pixel
    Информация о звуке: 48 kHz, Dolby Digital AC3 2.0, 192 kbps
    Раздача от:
    MediaInfo

    Общее
    Полное имя : Nochnoy.gost.1958.DVDRip_New-team_by_AVP_Studio.avi
    Формат : AVI
    Формат/Информация : Audio Video Interleave
    Размер файла : 743 Мбайт
    Продолжительность : 54 м. 50 с.
    Общий поток : 1893 Кбит/сек
    Программа кодирования : VirtualDubMod 1.5.10.3 | www.virtualdub-fr.org || (build 2550/release)
    Библиотека кодирования : VirtualDubMod build 2550/release
    Видео
    Идентификатор : 0
    Формат : MPEG-4 Visual
    Профиль формата : Advanced Simple@L5
    Параметр BVOP формата : 1
    Параметр QPel формата : Нет
    Параметр GMC формата : Без точки перехода
    Параметр матрицы формата : Выборочная
    Идентификатор кодека : XVID
    Идентификатор кодека/Подсказка : XviD
    Продолжительность : 54 м. 50 с.
    Битрейт : 1692 Кбит/сек
    Ширина : 704 пикселя
    Высота : 528 пикселей
    Соотношение сторон : 4: 3
    Частота кадров : 25, 000 кадров/сек
    Цветовое пространство : YUV
    Субдискретизация насыщенности : 4: 2: 0
    Битовая глубина : 8 бит
    Тип развёртки : Прогрессивная
    Метод сжатия : С потерями
    Бит/(Пиксели*Кадры) : 0.182
    Размер потока : 664 Мбайт (89%)
    Библиотека кодирования : XviD 73
    Аудио
    Идентификатор : 1
    Формат : AC-3
    Формат/Информация : Audio Coding 3
    Параметр Endianness формата : Big
    Идентификатор кодека : 2000
    Продолжительность : 54 м. 50 с.
    Вид битрейта : Постоянный
    Битрейт : 192 Кбит/сек
    Каналы : 2 канала
    Расположение каналов : Front: L R
    Частота : 48, 0 КГц
    Частота кадров : 31, 250 кадров/сек (1536 SPF)
    Битовая глубина : 16 бит
    Метод сжатия : С потерями
    Размер потока : 75, 3 Мбайт (10%)
    Выравнивание : Разделение по промежуткам
    Продолжительность промежутка : 40 мс. (1, 00 видеокадр)
    Время предзагрузки промежутка : 500 мс

    Скриншоты



    Залил: AVPStudio

    Онлайн видео Ночной гость (1958) DVDRip от New


    Размер скачиваемого торрента: 742.80 MB (778878976 Bytes)

    Ночной гость (1958) DVDRip от New-Team
    загрузка...
    Рейтинг →
     (голосов: 1, оценка 5/5, голосовать можно 1 раз )

    Другие торренты по теме:

  • Ночной гость / South Beach / 1993 / АП (Гаврилов) / DVDRip


    • Комментарии (0):

      Информация

      Информация

        Посетители, находящиеся в группе Гости, не могут оставлять комментарии в данной новости.

        ↓ Меню



        ↓ Опрос

        А Вы добавили сайт в закладки?
        Да
        Не


        Top 10 за месяц (Фильмы)