.
Авторизация | Регистрация
Хочешь лучшие торренты? Добавь свой email!
Добавить
» » В городе Сочи темные ночи (1989) SATRip скачать торрент бесплатно




    В городе Сочи темные ночи (1989) SATRip скачать торрент бесплатно

    Опубликовал: Админ | Дата: 10-09-2017, 14:47 | Просмотров: 0



    Детально о кино
    Русское название: В городе Сочи темные ночи
    Создали в: 1989
    Категория жанра: Драма, трагикомедия
    Главный режиссёр: Василий Пичул

    Актеры
    Жарков Алексей Дмитриевич, Негода Наталья Игоревна, Александр Миронов, Вертинская Анастасия Александровна, Александр Леньков,
    Александр Кавалеров, Людмила Иванова

    Сюжет фильма
    Действие картины происходит в разных городах — столице, северном провинциальном городке и, конечно, в Сочи. Персонажи — обычные люди — врачи и артисты, продавцы и рабочие, оказавшиеся перед лицом последствий печальных событий перестройки. На улицах грязно, в магазинах пусто, в сознании неопределенность… Но жизнь продолжается и каждый пытается идти своей дорогой. Лена — 25-летняя недоучившаяся студентка, брошенная любимым человеком и пытающаяся хоть как-то наладить свою жизнь. Она плывет по течению, в надежде на лучший поворот событий. Сантехник Степаныч — матёрый аферист, ловко входящий в доверие к людям и исчезающий с крупными суммами денег. Другие действующие лица — их знакомые, коллеги, родные, пути которых постоянно пересекаются и самым неожиданным образом выстраивают ход событий этой истории...

    Снималось в: СССР
    Киностудия:
    Время просмотра: 02: 02: 23
    Перевод текста: Не требуется (оригинальный)
    Файл
    Тип видео: avi
    Качество фильма: SATRip (DVB)
    Информация о видео: XviD, 640х432, 25fps, 712kbps
    Информация о звуке: MPEG Layer 3, 2ch, 48000Hz, 128kbps

    MediaInfo

    Общее
    Полное имя : V.Gorode.Sochi.1989.O.SATRip.700.CurHaJI.avi
    Формат : AVI
    Формат/Информация : Audio Video Interleave
    Размер файла : 744 Мбайт
    Продолжительность : 2 ч. 2 м.
    Общий поток : 850 Кбит/сек
    Название фильма : V.Gorode.Sochi.1989.O.SATRip.700.CurHaJI
    Программа кодирования : VirtualDubMod 1.5.10.3 | www.virtualdub-fr.org || (build 2550/release)
    Библиотека кодирования : VirtualDub build 35491/release
    Видео
    Идентификатор : 0
    Формат : MPEG-4 Visual
    Профиль формата : Advanced Simple@L5
    Параметр BVOP формата : 1
    Параметр QPel формата : Нет
    Параметр GMC формата : Без точки перехода
    Параметр матрицы формата : Выборочная
    Идентификатор кодека : XVID
    Идентификатор кодека/Подсказка : XviD
    Продолжительность : 2 ч. 2 м.
    Битрейт : 712 Кбит/сек
    Ширина : 640 пикселей
    Высота : 432 пикселя
    Соотношение сторон : 3: 2
    Частота кадров : 25, 000 кадров/сек
    Цветовое пространство : YUV
    Субдискретизация насыщенности : 4: 2: 0
    Битовая глубина : 8 бит
    Тип развёртки : Прогрессивная
    Метод сжатия : С потерями
    Бит/(Пиксели*Кадры) : 0.103
    Размер потока : 623 Мбайт (84%)
    Библиотека кодирования : XviD 73
    Аудио
    Идентификатор : 1
    Формат : MPEG Audio
    Версия формата : Version 1
    Профиль формата : Layer 3
    Идентификатор кодека : 55
    Идентификатор кодека/Подсказка : MP3
    Продолжительность : 2 ч. 2 м.
    Вид битрейта : Постоянный
    Битрейт : 128 Кбит/сек
    Каналы : 2 канала
    Частота : 48, 0 КГц
    Метод сжатия : С потерями
    Размер потока : 112 Мбайт (15%)
    Выравнивание : Соединение по промежуткам
    Продолжительность промежутка : 40 мс. (1, 00 видеокадр)
    Время предзагрузки промежутка : 504 мс.
    Библиотека кодирования : LAME3.99r
    Залил: CurHaJI

    Онлайн видео Игра (2008) DVDRip


    Размер скачиваемого торрента: 743.85 MB (779979570 Bytes)


    В городе Сочи темные ночи (1989) SATRip
    загрузка...
    Рейтинг →
     (голосов: 1, оценка 3/5, голосовать можно 1 раз )

    Другие торренты по теме:

  • В городе Сочи темные ночи (1989) SATRip
  • В городе Сочи темные ночи / 1989 / РУ / SATRip


    • Комментарии (0):

      Информация

      Информация

        Посетители, находящиеся в группе Гости, не могут оставлять комментарии в данной новости.

        ↓ Меню



        ↓ Опрос

        А Вы добавили сайт в закладки?
        Да
        Не


        Top 10 за месяц (Фильмы)