.
Авторизация | Регистрация
Хочешь лучшие торренты? Добавь свой email!
Добавить
» » Черная мама, белая мама / Black Mama White Mama (1973) BDRip 720p | P2 скачать торрент бесплатно




    Черная мама, белая мама / Black Mama White Mama (1973) BDRip 720p | P2 скачать торрент бесплатно

    Опубликовал: Админ | Дата: 10-09-2017, 14:47 | Просмотров: 0



    Детально о кино
    Русское название: Черная мама, белая мама
    Русское название в мировом прокате: Black Mama White Mama
    Создали в: 1973
    Категория жанра: боевик, криминал, драма
    Главный режиссер: Эдди Ромеро

    Актеры
    Пэм Гриер, Маргарет Марков, Сид Хэйг, Линн Борден, Zaldy Zschornack, Лори Бертон, Эдди Гарсиа, Алона Алегри, Дино Фернандо, Вик Диаз

    Описание фильма
    70-е. В некой “банановой республике” неспокойно. Народ протестует, а погрязшая в коррупции власть, играя стероидными мускулами, активно наполняет тюрьмы. Маховик репрессий не щадит никого. Даже женщин. Две заключённые, беленькая и чёрненькая, не могут ужиться, их связывают цепью, чтобы безопаснее конвоировать. Однако те сбегают. И, словно кошки, пробираются через дикую местность, разжигая попутно кровавые перестрелки между бандитами и группой местных революционеров.

    Снималось в: США
    Время просмотра: 01: 26: 38
    Перевод текста: Профессиональный (двухголосый закадровый) НТВ
    Субтитры: английские
    Оригинальная аудиодорожка: английский
    Файл
    Качество фильма: BDRip 720p
    Информация о видео: 1280x694 ( 1.85: 1); 8000 Kbps; 23.976 fps; 0.276 bpp
    Информация о звуке 1: Russian; AC3; 48.0 KHz; 1ch; 96 Kbps DVO
    Информация о звуке 2: English; FLAC; 48.0 KHz; 1ch; 601 Kbps
    Информация о звуке 3: English; AC3; 48.0 KHz; 2ch; 192 Kbps commentary by Andrew Leavold
    Скриншоты

    MediaInfo
    Format : Matroska
    Format version : Version 4/Version 2
    File size : 5.38 GiB
    Duration : 1 h 26 min
    Overall bit rate mode : Variable
    Overall bit rate : 8 890 kb/s
    Encoded date : UTC 2017-03-11 05: 13: 00
    Writing application : mkvmerge v8.3.0 (;Over the Horizon;) 64bit
    Writing library : libebml v1.3.1 + libmatroska v1.4.2
    Attachments : poster.jpg
    Video
    ID : 1
    Format : AVC
    Format/Info : Advanced Video Codec
    Format profile : High@L4.1
    Format settings, CABAC : Yes
    Format settings, ReFrames : 9 frames
    Codec ID : V_MPEG4/ISO/AVC
    Duration : 1 h 26 min
    Bit rate : 8 000 kb/s
    Width : 1 280 pixels
    Height : 694 pixels
    Display aspect ratio : 1.85: 1
    Frame rate mode : Constant
    Frame rate : 23.976 (24000/1001) FPS
    Color space : YUV
    Chroma subsampling : 4: 2: 0
    Bit depth : 8 bits
    Scan type : Progressive
    Bits/(Pixel*Frame) : 0.376
    Stream size : 4.84 GiB (90%)
    Writing library : x264 core 148 r2638 7599210
    Encoding settings : cabac=1/ref=9/deblock=1: -3: -3/analyse=0x3: 0x133/me=umh/subme=11/psy=1/psy_rd=1.00: 0.50/mixed_ref=1/me_range=32/chroma_me=1/trellis=2/8x8dct=1/cqm=0/deadzone=21, 11/fast_pskip=0/chroma_qp_offset=-4/threads=6/lookahead_threads=1/sliced_threads=0/nr=0/decimate=0/interlaced=0/bluray_compat=0/constrained_intra=0/bframes=10/b_pyramid=2/b_adapt=2/b_bias=0/direct=3/weightb=1/open_gop=0/weightp=2/keyint=240/keyint_min=23/scenecut=40/intra_refresh=0/rc_lookahead=60/rc=2pass/mbtree=0/bitrate=8000/ratetol=1.0/qcomp=0.65/qpmin=0/qpmax=69/qpstep=4/cplxblur=20.0/qblur=0.5/vbv_maxrate=62500/vbv_bufsize=78125/nal_hrd=none/filler=0/ip_ratio=1.40/pb_ratio=1.30/aq=1: 1.00
    Default : Yes
    Forced : No
    Audio #1
    ID : 2
    Format : AC-3
    Format/Info : Audio Coding 3
    Mode extension : CM (complete main)
    Format settings, Endianness : Big
    Codec ID : A_AC3
    Duration : 1 h 26 min
    Bit rate mode : Constant
    Bit rate : 96.0 kb/s
    Channel(s) : 1 channel
    Channel positions : Front: C
    Sampling rate : 48.0 kHz
    Frame rate : 31.250 FPS (1536 spf)
    Bit depth : 16 bits
    Compression mode : Lossy
    Stream size : 59.4 MiB (1%)
    Language : Russian
    Default : Yes
    Forced : No
    Audio #2
    ID : 3
    Format : FLAC
    Format/Info : Free Lossless Audio Codec
    Codec ID : A_FLAC
    Duration : 1 h 26 min
    Bit rate mode : Variable
    Bit rate : 601 kb/s
    Channel(s) : 1 channel
    Channel positions : Front: C
    Sampling rate : 48.0 kHz
    Frame rate : 11.719 FPS (4096 spf)
    Bit depth : 24 bits
    Stream size : 372 MiB (7%)
    Writing library : libFLAC 1.2.1 (UTC 2007-09-17)
    Language : English
    Default : No
    Forced : No
    Audio #3
    ID : 4
    Format : AC-3
    Format/Info : Audio Coding 3
    Mode extension : CM (complete main)
    Format settings, Endianness : Big
    Codec ID : A_AC3
    Duration : 1 h 26 min
    Bit rate mode : Constant
    Bit rate : 192 kb/s
    Channel(s) : 2 channels
    Channel positions : Front: L R
    Sampling rate : 48.0 kHz
    Frame rate : 31.250 FPS (1536 spf)
    Bit depth : 16 bits
    Compression mode : Lossy
    Stream size : 119 MiB (2%)
    Title : commentary by Andrew Leavold
    Language : English
    Default : No
    Forced : No
    Text
    ID : 5
    Format : UTF-8
    Codec ID : S_TEXT/UTF8
    Codec ID/Info : UTF-8 Plain Text
    Duration : 1 h 23 min
    Bit rate : 33 b/s
    Count of elements : 640
    Stream size : 20.5 KiB (0%)
    Language : English
    Default : No
    Forced : No
    Menu
    00: 00: 00.000 : en: 00: 00: 00.000
    00: 07: 35.288 : en: 00: 07: 35.288
    00: 14: 06.637 : en: 00: 14: 06.637
    00: 23: 55.184 : en: 00: 23: 55.184
    00: 28: 55.567 : en: 00: 28: 55.567
    00: 36: 16.216 : en: 00: 36: 16.216
    00: 43: 23.935 : en: 00: 43: 23.935
    00: 50: 56.220 : en: 00: 50: 56.220
    00: 58: 20.247 : en: 00: 58: 20.247
    01: 05: 12.992 : en: 01: 05: 12.992
    01: 13: 31.365 : en: 01: 13: 31.365
    01: 19: 03.864 : en: 01: 19: 03.864


    Онлайн видео Черная мама, белая мама


    Размер скачиваемого торрента: 5.38 GB (5776779561 Bytes)

    Черная мама, белая мама/Black Mama White Mama (1973) BDRip 720p | P2
    загрузка...
    Рейтинг →
     (голосов: 1, оценка 3/5, голосовать можно 1 раз )

    Другие торренты по теме:

  • Черная мама, белая мама / Black Mama White Mama (1973) HDRip от ExKinoRay | P2


    • Комментарии (0):

      Информация

      Информация

        Посетители, находящиеся в группе Гости, не могут оставлять комментарии в данной новости.

        ↓ Меню



        ↓ Опрос

        А Вы добавили сайт в закладки?
        Да
        Не


        Top 10 за месяц (Фильмы)