.
Авторизация | Регистрация
Хочешь лучшие торренты? Добавь свой email!
Добавить
» » Наваждение / Unforgettable (2017) BDRip 720p от KinoGadget | iPad | Лицензия скачать торрент бесплатно




    Наваждение / Unforgettable (2017) BDRip 720p от KinoGadget | iPad | Лицензия скачать торрент бесплатно

    Опубликовал: Админ | Дата: 10-09-2017, 14:47 | Просмотров: 0



    Создали в: 2017
    Русское название в мировом прокате: Unforgettable
    Снималось в: США
    Категория жанра: триллер, драма
    Возраст: 18+
    Главный режиссер: Дениз Ди Нови

    Актеры
    Розарио Доусон, Кэтрин Хейгл, Джофф Стульц, Шерил Лэдд, Уитни Каммингс, Роберт Уиздом, Саймон Кассианидес, Джэйсон Блэр, Изабелла Кай Райс, Алекс Кихано
    Описание: Тесса Конновер тяжело переживает развод с мужем Дэвидом. Он теперь счастливо помолвлен с Джулией Бэнкс, которая вторгается не только в дом, в котором они когда-то жили с Тессой, но и в жизнь их дочери Лили. Джулия, в своей новой роли жены и мачехи, отчаянно верит, что, наконец, встретила мужчину своей мечты, который поможет ей забыть ее беспокойное прошлое. Но зависть Тессы набирает обороты, и ничто не помешает ей превратить мечту Джулии в ее худший кошмар.
    Время просмотра: 01: 40: 08
    Перевод текста: Дублированный Лицензия
    Оригинальная дорожка: есть
    Автор рипа:
    Качество фильма видео: BDRip 720p Исходник: Blu-Ray Remux (1080p) Тип видео: mp4
    Информация о видео кодек: MPEG-4 AVC Информация о звуке кодек: AAC
    Информация о видео: 1280x720 (16: 9) at 23.976 fps, AVC at 1 538 kbps avg, 0.070 bit/pixel
    Информация о звуке №1 Rus: 48.0 KHz, AAC, 2 ch, 128.0 Kbps
    Информация о звуке №2 Eng: 48.0 KHz, AAC, 2 ch, 128.0 Kbps
    Субтитры: русские (форсированные, полные)
    Навигация по главам: есть
    Размер скачиваемого торрента: 1.26 GiB
    Log x264
    avs info: 1280x720p 1: 1 @ 24000/1001 fps (cfr)
    x264 info: using SAR=1/1
    x264 info: using cpu capabilities: MMX2 SSE2Fast SSSE3 Cache64
    x264 info: profile High, level 4.1
    x264 info: frame I: 1439 Avg QP: 16.14 size: 84651
    x264 info: frame P: 27291 Avg QP: 19.37 size: 19453
    x264 info: frame B: 115319 Avg QP: 21.34 size: 4357
    x264 info: consecutive B-frames: 1.6% 1.2% 3.5% 10.5% 19.3% 48.0% 9.6% 2.6% 3.7%
    x264 info: mb I I16..4: 11.9% 69.2% 18.9%
    x264 info: mb P I16..4: 2.0% 6.2% 0.7% P16..4: 49.4% 16.5% 13.6% 0.0% 0.0% skip: 11.6%
    x264 info: mb B I16..4: 0.1% 0.3% 0.0% B16..8: 37.8% 3.3% 0.6% direct: 1.6% skip: 56.2% L0: 43.9% L1: 52.2% BI: 3.9%
    x264 info: 8x8 transform intra: 70.1% inter: 73.1%
    x264 info: coded y, uvDC, uvAC intra: 62.4% 72.3% 38.6% inter: 8.2% 14.0% 0.9%
    x264 info: i16 v, h, dc, p: 35% 14% 5% 45%
    x264 info: i8 v, h, dc, ddl, ddr, vr, hd, vl, hu: 22% 13% 17% 6% 9% 10% 8% 9% 7%
    x264 info: i4 v, h, dc, ddl, ddr, vr, hd, vl, hu: 30% 16% 13% 6% 9% 9% 7% 6% 4%
    x264 info: i8c dc, h, v, p: 51% 17% 23% 8%
    x264 info: Weighted P-Frames: Y: 1.6% UV: 0.8%
    x264 info: ref P L0: 53.6% 9.7% 16.5% 5.8% 4.5% 3.6% 3.0% 1.6% 1.6% 0.0% 0.0%
    x264 info: ref B L0: 82.5% 8.5% 4.3% 1.7% 1.3% 1.0% 0.7% 0.2%
    x264 info: ref B L1: 94.7% 5.3%
    x264 info: kb/s: 1538.21
    encoded 144049 frames, 2.28 fps, 1538.21 kb/s

    MI
    General
    Complete name : ...Navazhdenie_2017_KinoGadget.mp4
    Format : MPEG-4
    Format profile : Base Media
    Codec ID : isom (isom)
    File size : 1.26 GiB
    Duration : 1 h 40 min
    Overall bit rate mode : Variable
    Overall bit rate : 1 806 kb/s
    Movie name : Наваждение | KinoGadget
    Performer : Дениз Ди Нови
    Director : Дениз Ди Нови
    Actor : Розарио Доусон/Кэтрин Хейгл/Джофф Стульц/Шерил Лэдд/Уитни Каммингс/Роберт Уиздом/Саймон Кассианидес/Джэйсон Блэр/Изабелла Кай Райс/Алекс Кихано
    Screenplay by : Кристина Ходсон
    Producer : Дениз Ди Нови/Элисон Гринспен/Линн Харрис
    Genre : Drama, Thriller
    ContentType : Short Film
    Recorded date : 2017
    Encoded date : UTC 2017-09-09 16: 25: 21
    Tagged date : UTC 2017-09-09 17: 03: 23
    Cover : Yes
    ContentRating : mpaa|R|400|
    LongDeion : Тесса Конновер тяжело переживает развод с мужем Дэвидом. Он теперь счастливо помолвлен с Джулией Бэнкс, которая вторгается не только в дом, в котором они когда-то жили с Тессой, но и в жизнь их дочери Лили. Джулия, в своей новой роли жены и мачехи, отчаянно верит, что, наконец, встретила мужчину своей мечты, который поможет ей забыть ее беспокойное прошлое. Но зависть Тессы набирает обороты, и ничто не помешает ей превратить мечту Джулии в ее худший кошмар.
    HDVideo : Yes
    Video
    ID : 1
    Format : AVC
    Format/Info : Advanced Video Codec
    Format profile : High@L4.1
    Format settings, CABAC : Yes
    Format settings, ReFrames : 9 frames
    Codec ID : avc1
    Codec ID/Info : Advanced Video Coding
    Duration : 1 h 40 min
    Bit rate : 1 538 kb/s
    Maximum bit rate : 15.9 Mb/s
    Width : 1 280 pixels
    Height : 720 pixels
    Display aspect ratio : 16: 9
    Frame rate mode : Constant
    Frame rate : 23.976 (24000/1001) FPS
    Color space : YUV
    Chroma subsampling : 4: 2: 0
    Bit depth : 8 bits
    Scan type : Progressive
    Bits/(Pixel*Frame) : 0.070
    Stream size : 1.08 GiB (85%)
    Writing library : x264 core 148 r2744 b97ae06
    Encoding settings : cabac=1/ref=9/deblock=1: -2: -1/analyse=0x3: 0x113/me=umh/subme=7/psy=1/psy_rd=1.00: 0.00/mixed_ref=1/me_range=32/chroma_me=1/trellis=2/8x8dct=1/cqm=0/deadzone=21, 11/fast_pskip=0/chroma_qp_offset=-2/threads=3/lookahead_threads=1/sliced_threads=0/nr=0/decimate=1/interlaced=0/bluray_compat=0/constrained_intra=0/bframes=8/b_pyramid=2/b_adapt=2/b_bias=0/direct=1/weightb=1/open_gop=0/weightp=2/keyint=250/keyint_min=25/scenecut=40/intra_refresh=0/rc_lookahead=60/rc=crf/mbtree=1/crf=20.0/qcomp=0.60/qpmin=0/qpmax=69/qpstep=4/vbv_maxrate=62500/vbv_bufsize=78125/crf_max=0.0/nal_hrd=none/filler=0/ip_ratio=1.40/aq=1: 1.00
    Encoded date : UTC 2017-09-09 11: 51: 47
    Tagged date : UTC 2017-09-09 16: 25: 54
    Audio #1
    ID : 2
    Format : AAC
    Format/Info : Advanced Audio Codec
    Format profile : LC
    Codec ID : 40
    Duration : 1 h 40 min
    Bit rate mode : Variable
    Bit rate : 128 kb/s
    Maximum bit rate : 135 kb/s
    Channel(s) : 2 channels
    Channel positions : Front: L R
    Sampling rate : 48.0 kHz
    Frame rate : 46.875 FPS (1024 spf)
    Compression mode : Lossy
    Stream size : 91.7 MiB (7%)
    Language : Russian
    Encoded date : UTC 2017-09-09 11: 59: 58
    Tagged date : UTC 2017-09-09 16: 25: 54
    Audio #2
    ID : 3
    Format : AAC
    Format/Info : Advanced Audio Codec
    Format profile : LC
    Codec ID : 40
    Duration : 1 h 40 min
    Bit rate mode : Variable
    Bit rate : 128 kb/s
    Maximum bit rate : 134 kb/s
    Channel(s) : 2 channels
    Channel positions : Front: L R
    Sampling rate : 48.0 kHz
    Frame rate : 46.875 FPS (1024 spf)
    Compression mode : Lossy
    Stream size : 91.7 MiB (7%)
    Language : English
    Encoded date : UTC 2017-09-09 12: 07: 33
    Tagged date : UTC 2017-09-09 16: 25: 54
    Text #1
    ID : 4
    Format : Timed Text
    Codec ID : tx3g
    Duration : 1 h 35 min
    Bit rate mode : Variable
    Bit rate : 5 b/s
    Stream size : 3.70 KiB (0%)
    Language : Russian
    Forced : No
    Encoded date : UTC 2017-09-09 16: 25: 53
    Tagged date : UTC 2017-09-09 16: 25: 54
    Text #2
    ID : 5
    Format : Timed Text
    Codec ID : tx3g
    Duration : 1 h 40 min
    Bit rate mode : Variable
    Bit rate : 84 b/s
    Stream size : 61.4 KiB (0%)
    Language : Russian
    Forced : No
    Encoded date : UTC 2017-09-09 16: 25: 53
    Tagged date : UTC 2017-09-09 16: 25: 54
    Menu
    00: 00: 00.000 : 00: 00: 00.000
    00: 09: 57.055 : 00: 09: 57.055
    00: 18: 48.044 : 00: 18: 48.044
    00: 28: 13.984 : 00: 28: 13.984
    00: 36: 48.832 : 00: 36: 48.832
    00: 47: 02.319 : 00: 47: 02.319
    00: 56: 55.370 : 00: 56: 55.370
    01: 08: 42.160 : 01: 08: 42.160
    01: 17: 40.322 : 01: 17: 40.322
    01: 26: 15.629 : 01: 26: 15.629
    01: 37: 16.164 : 01: 37: 16.164

    Скриншоты


    Данный рип предназначен для просмотра на мобильных гаджетах с поддержкой формата mp4

    Онлайн видео Наваждение


    Размер скачиваемого торрента: 1.26 GB (1356099811 Bytes)

    Наваждение/Unforgettable (2017) BDRip 720p от KinoGadget | iPad | Лицензия
    загрузка...
    Рейтинг →
     (голосов: 1, оценка 3/5, голосовать можно 1 раз )

    Другие торренты по теме:

  • Наваждение / Unforgettable (2017) BDRip от MegaPeer | iTunes
  • Наваждение / Unforgettable (2017) BDRip 720p | iTunes
  • Наваждение / Unforgettable (2017) HDRip-AVC | iTunes
  • Наваждение / Unforgettable (2017) BDRip 1080p | iTunes
  • Наваждение / Unforgettable (2017) BDRemux 1080p от ExKinoRay | Лицензия
  • Наваждение / Unforgettable (2017) BDRip-AVC от OlLanDGroup | Лицензия
  • Наваждение / Unforgettable (2017) BDRip 720p от ExKinoRay | Лицензия
  • Наваждение / Unforgettable (2017) BDRip от MegaPeer | Лицензия


    • Комментарии (0):

      Информация

      Информация

        Посетители, находящиеся в группе Гости, не могут оставлять комментарии в данной новости.

        ↓ Меню



        ↓ Опрос

        А Вы добавили сайт в закладки?
        Да
        Не


        Top 10 за месяц (Фильмы)