.
Авторизация | Регистрация
Хочешь лучшие торренты? Добавь свой email!
Добавить
» » Светлое будущее / Право на жизнь 3 / A Better Tomorrow / Ying hung boon sik 3 (1989) BDRip 720p от R.G. GoldenShara скачать торрент бесплатно




    Светлое будущее / Право на жизнь 3 / A Better Tomorrow / Ying hung boon sik 3 (1989) BDRip 720p от R.G. GoldenShara скачать торрент бесплатно

    Опубликовал: Админ | Дата: 27-02-2015, 11:09 | Просмотров: 342



    Информация о фильме

    Название: Светлое будущее / Право на жизнь 3
    Оригинальное название: A Better Tomorrow / Ying hung boon sik 3
    Год выхода: 1989
    Жанр: боевик, военный
    Режиссер: Цуи Харк
    В ролях: Чоу Юнь-Фат, Тони Люн Ка Фай, Анита Муи, Кьень Ши, Сабуро Токито, Вэй Лун Чэн, Уильям Чэн, Мэгги Чунг Хо Йи, Линг Нэм Лам, Эндрю Кэм Юэнь Ва

    Сюжет фильма: В третьем фильме за светлое будущее для себя, а не для народа борются два двоюродных брата. Действие начинается во Вьетнаме в конце войны с американцами. В Китае идет культурная революция. В Камбодже война. В эти смутные времена наши герои занимаются преступностью, сея горы трупов под руководством роковой красавицы.

    Продолжительность: 01:59:02
    Перевод: Профессиональный (многоголосый)
    Выпущено: Гонконг

    Файл
    Качество: BDRip 720p
    Видео: 1280x688, 2245 Кбит/сек, 23,976 кадр/сек, AVC, x264, 1,85:1, 0.106 Бит/Пиксели*Кадры, 2pass
    Аудио: AC-3, 384 Кбит/сек, 6 канала(ов), 48,0 КГц
    Размер: 2,19 ГБ

    Бюджет Фильма: -
    Кассовые сборы: -

    Релиз от:




    Скриншоты


    MI

    Формат : Matroska
    Версия формата : Version 2
    Размер файла : 2,19 Гбайт
    Продолжительность : 1 ч. 59 м.
    Общий поток : 2630 Кбит/сек
    Дата кодирования : UTC 2013-01-07 12:07:51
    Программа кодирования : mkvmerge v5.8.0 (;No Sleep / Pillow;) built on Sep 2 2012 15:37:04
    Библиотека кодирования : libebml v1.2.3 libmatroska v1.3.0

    Видео
    Идентификатор : 1
    Формат : AVC
    Формат/Информация : Advanced Video Codec
    Профиль формата : High@L3.1
    Параметр CABAC формата : Да
    Параметр ReFrames формата : 4 кадра
    Идентификатор кодека : V_MPEG4/ISO/AVC
    Продолжительность : 1 ч. 59 м.
    Битрейт : 2245 Кбит/сек
    Ширина : 1280 пикселей
    Высота : 688 пикселей
    Соотношение сторон : 1,85:1
    Соотношение сторон в оригинале : 1,85:1
    Режим частоты кадров : Постоянный
    Частота кадров : 23,976 кадра/сек
    Цветовое пространство : YUV
    Субдискретизация насыщенности : 4:2:0
    Битовая глубина : 8 бит
    Тип развёртки : Прогрессивная
    Бит/(Пиксели*Кадры) : 0.106
    Размер потока : 1,82 Гбайт (83%)
    Библиотека кодирования : x264 core 129 r2230 1cffe9f
    Настройки программы : cabac=1 / ref=3 / deblock=1:0:0 / analyse=0x3:0x113 / me=hex / subme=7 / psy=1 / psy_rd=1.00:0.00 / mixed_ref=1 / me_range=16 / chroma_me=1 / trellis=1 / 8x8dct=1 / cqm=0 / deadzone=21,11 / fast_pskip=1 / chroma_qp_offset=-2 / threads=6 / lookahead_threads=1 / sliced_threads=0 / nr=0 / decimate=1 / interlaced=0 / bluray_compat=0 / constrained_intra=0 / bframes=3 / b_pyramid=2 / b_adapt=1 / b_bias=0 / direct=1 / weightb=1 / open_gop=0 / weightp=2 / keyint=240 / keyint_min=23 / scenecut=40 / intra_refresh=0 / rc_lookahead=40 / rc=2pass / mbtree=1 / bitrate=2245 / ratetol=1.0 / qcomp=0.60 / qpmin=0 / qpmax=69 / qpstep=4 / cplxblur=20.0 / qblur=0.5 / ip_ratio=1.40 / aq=1:1.00
    Язык : English
    Default : Да
    Forced : Нет

    Аудио
    Идентификатор : 2
    Формат : AC-3
    Формат/Информация : Audio Coding 3
    Расширение режима : CM (complete main)
    Параметр Endianness формата : Big
    Идентификатор кодека : A_AC3
    Продолжительность : 1 ч. 59 м.
    Вид битрейта : Постоянный
    Битрейт : 384 Кбит/сек
    Каналы : 6 каналов
    Расположение каналов : Front: L C R, Side: L R, LFE
    Частота : 48,0 КГц
    Битовая глубина : 16 бит
    Метод сжатия : С потерями
    Размер потока : 327 Мбайт (15%)
    Default : Да
    Forced : Нет



    Размер: 2.19 GB (2348334432 Bytes)
    загрузка...
    Рейтинг →
     (голосов: 1, оценка 4/5, голосовать можно 1 раз )

    Другие торренты по теме:

  • Светлое будущее / Право на жизнь / A Better Tomorrow / Ying hung boon sik (1986) BDRip от HQ-ViDEO скачать через торрент бесплатно
  • Светлое будущее-II / Право на жизнь-II / A Better Tomorrow-II / Ying hung boon sik-II (1987) BDRip от HQ-ViDEO
  • Светлое будущее-III / Право на жизнь-III / A Better Tomorrow-III / Ying hung boon sik-III (1989) BDRip от HQ-ViDEO скачать через торрент бесплатно
  • Светлое будущее: Трилогия / Право на жизнь / A Better Tomorow / Ying hung boon sik: Trilogy (1986-1989) BDRip 720p | Р
  • Светлое будущее / Moo-jeok-ja (2010) BDRip 720p | L1
  • Светлое будущее 3: Любовь и смерть в Сайгоне / A Better Tomorrow 3 (1989) HDRip от Scarabey | Р
  • Светлое будущее / A Better Tomorrow (1986) HDRip от Scarabey | Р


    • Комментарии (0):

      Информация

      Информация

        Посетители, находящиеся в группе Гости, не могут оставлять комментарии в данной новости.

        ↓ Меню



        ↓ Опрос

        А Вы добавили сайт в закладки?
        Да
        Не


        Top 10 за месяц (Фильмы)