.
Авторизация | Регистрация
Хочешь лучшие торренты? Добавь свой email!
Добавить
» » Дочь солдата никогда не плачет / A Soldier`s Daughter Never Cries (1998) DVD9 | P, A скачать торрент бесплатно




    Дочь солдата никогда не плачет / A Soldier`s Daughter Never Cries (1998) DVD9 | P, A скачать торрент бесплатно

    Опубликовал: Админ | Дата: 27-02-2015, 11:09 | Просмотров: 313



    Информация о фильме
    Название: Дочь солдата никогда не плачет
    Оригинальное название: A Soldier`s Daughter Never Cries
    Год выхода: 1998
    Жанр: Драма
    Режиссер: Джеймс Айвори
    В ролях: Крис Кристофферсон, Лили Собески, Джейн Биркин, Джесс Брэдфорд, Исаак де Банколе, Натали Ришар, Виржини Ледуайен, Маша Мериль, Барбара Херши, Доминик Блан
    О фильме: С раннего детства Шанни Уиллис окружали достойные мужчины. Может, ей просто повезло, и поэтому до определенного момента контакты с представителями противоположного пола не вызывали у нее опасений. Взросление Шанни совпало с возвращением их семьи из Европы в Штаты, где раскованность и открытость в отношениях с юношами приводит ее в первый жизненный тупик. Оказалось, что пришло время обдуманных поступков, что не все могут сравниться с ее отцом, любовь к которому она понесет через всю жизнь…

    Страна: Франция, Великобритания, США
    Студия: Capitol Films , Merchant Ivory Productions , British Screen Productions
    Продолжительность: 02:01:37
    Перевод: Профессиональный многоголосый, авторский одноголосый закадровые
    Субтитры: Польские


    Файл
    Кодек: MPEG-2
    Качество: DVD-9
    Видео: PAL 16:9 (720x576) VBR
    Звук: Русский (Dolby AC3, 2 ch), английский, польский (Dolby AC3, 6 ch)




    Меню


    DVDInfo


    Title:
    Size: 7.52 Gb ( 7 882 074 KBytes ) - DVD-9
    Enabled regions: 1, 2, 3, 4, 5, 6, 7, 8

    VTS_01 :
    Play Length: 02:01:37
    Video: PAL 16:9 (720x576) VBR, Auto PanScan
    Audio:
    Russian (Dolby AC3, 2 ch)
    Polish (Dolby AC3, 6 ch)
    English (Dolby AC3, 6 ch)
    Russian (Dolby AC3, 2 ch)
    Subtitles:
    Polish

    VTS_02 :
    Play Length: 00:01:45 00:02:51 00:01:35 00:02:24 00:02:14 00:01:46 00:02:21 00:01:59 00:01:54 00:02:31 00:02:11 00:01:55 00:01:53 00:01:38 00:01:42 00:01:49 00:01:34 00:01:56 00:01:39 00:02:15
    Video: PAL 4:3 (720x576) VBR
    Audio:
    Polish (Dolby AC3, 2 ch)

    VTS_03 :
    Play Length: 00:00:14
    Video: PAL 4:3 (720x576) VBR

    VTS_04 :
    Play Length: 00:00:36
    Video: PAL 16:9 (720x576) VBR, Auto PanScan
    Audio:
    Polish (Dolby AC3, 6 ch)

    VTS_05 :
    Play Length: 00:00:14
    Video: PAL 16:9 (720x576) VBR, Auto PanScan
    Audio:
    Polish (Dolby AC3, 6 ch)

    VTS_06 :
    Play Length: 00:00:01 00:03:50
    Video: PAL 16:9 (720x576) VBR, Auto PanScan
    Audio:
    Polish (Dolby AC3, 2 ch)

    VTS_07 :
    Play Length: 00:01:59 00:01:21 00:02:17 00:01:13 00:02:18 00:02:04
    Video: PAL 16:9 (720x576) VBR, Auto PanScan
    Audio:
    Polish (Dolby AC3, 2 ch)

    VTS_08 :
    Play Length:
    Video: PAL 4:3 (720x576) VBR

    VTS_09 :
    Play Length: 00:00:09 00:00:07
    Video: PAL 4:3 (720x576) VBR
    Audio:
    Polish (Dolby AC3, 2 ch)

    Menu Video:
    NTSC 4:3 (720x480) VBR
    Auto PanScan, Auto Letterboxed
    Menu Polish Language Unit :
    Root Menu
    Chapter (PTT) Menu
    Angle menu






    MediaInfo
    Общее
    Полное имя : D:1АААA Soldier;s Daughter Never Cries DVD-9_Custom_2rusVIDEO_TSVTS_01_1.VOB
    Формат : MPEG-PS
    Размер файла : 1024 Мбайт
    Продолжительность : 25 м.
    Режим общего битрейта : Переменный
    Общий поток : 5571 Кбит/сек

    Видео
    Идентификатор : 224 (0xE0)
    Формат : MPEG Video
    Версия формата : Version 2
    Профиль формата : Main@Main
    Параметр BVOP формата : Да
    Параметр матрицы формата : Выборочная
    Параметр GOP формата : Variable
    Продолжительность : 25 м.
    Вид битрейта : Переменный
    Битрейт : 4180 Кбит/сек
    Максимальный битрейт : 9800 Кбит/сек
    Ширина : 720 пикселей
    Высота : 576 пикселей
    Соотношение сторон : 16:9
    Частота кадров : 25,000 кадров/сек
    Стандарт вещания : PAL
    Цветовое пространство : YUV
    Субдискретизация насыщенности : 4:2:0
    Битовая глубина : 8 бит
    Тип развёртки : Чересстрочная
    Порядок развёртки : Нижнее поле первое
    Метод сжатия : С потерями
    Бит/(Пиксели*Кадры) : 0.403
    TimeCode_FirstFrame : 00:00:00:00
    TimeCode_Source : Group of pictures t_head
    Размер потока : 768 Мбайт (75%)

    Аудио #1
    Идентификатор : 189 (0xBD)-128 (0x80)
    Формат : AC-3
    Формат/Информация : Audio Coding 3
    Расширение режима : CM (complete main)
    Параметр Endianness формата : Big
    Режим смешивания : DVD-Video
    Продолжительность : 25 м.
    Вид битрейта : Постоянный
    Битрейт : 192 Кбит/сек
    Каналы : 2 канала
    Расположение каналов : Front: L R
    Частота : 48,0 КГц
    Битовая глубина : 16 бит
    Метод сжатия : С потерями
    Размер потока : 35,3 Мбайт (3%)

    Аудио #2
    Идентификатор : 189 (0xBD)-129 (0x81)
    Формат : AC-3
    Формат/Информация : Audio Coding 3
    Расширение режима : CM (complete main)
    Параметр Endianness формата : Big
    Режим смешивания : DVD-Video
    Продолжительность : 25 м.
    Вид битрейта : Постоянный
    Битрейт : 448 Кбит/сек
    Каналы : 6 каналов
    Расположение каналов : Front: L C R, Side: L R, LFE
    Частота : 48,0 КГц
    Битовая глубина : 16 бит
    Метод сжатия : С потерями
    Размер потока : 82,3 Мбайт (8%)

    Аудио #3
    Идентификатор : 189 (0xBD)-130 (0x82)
    Формат : AC-3
    Формат/Информация : Audio Coding 3
    Расширение режима : CM (complete main)
    Параметр Endianness формата : Big
    Режим смешивания : DVD-Video
    Продолжительность : 25 м.
    Вид битрейта : Постоянный
    Битрейт : 448 Кбит/сек
    Каналы : 6 каналов
    Расположение каналов : Front: L C R, Side: L R, LFE
    Частота : 48,0 КГц
    Битовая глубина : 16 бит
    Метод сжатия : С потерями
    Размер потока : 82,3 Мбайт (8%)

    Аудио #4
    Идентификатор : 189 (0xBD)-131 (0x83)
    Формат : AC-3
    Формат/Информация : Audio Coding 3
    Расширение режима : CM (complete main)
    Параметр Endianness формата : Big
    Режим смешивания : DVD-Video
    Продолжительность : 25 м.
    Вид битрейта : Постоянный
    Битрейт : 192 Кбит/сек
    Каналы : 2 канала
    Расположение каналов : Front: L R
    Частота : 48,0 КГц
    Битовая глубина : 16 бит
    Метод сжатия : С потерями
    Размер потока : 35,3 Мбайт (3%)

    Текст
    Идентификатор : 189 (0xBD)-32 (0x20)
    Формат : RLE
    Формат/Информация : Run-length encoding
    Режим смешивания : DVD-Video
    Продолжительность : 25 м.
    Задержка видео : 12 с.

    Меню




    Скриншоты

    Залил: YArl
    Размер: 7.52 GB (8071243776 Bytes)
    загрузка...
    Рейтинг →
     (голосов: 1, оценка 3/5, голосовать можно 1 раз )

    Другие торренты по теме:

  • Генеральская дочь / Дочь генерала / The Generals Daughter (1999) WEB-DLRip-AVC | P, P2, A
  • Рони, дочь разбойника / Ронья, дочь разбойника / Sanzoku no Musume Ronja / 山賊の娘ローニャ
  • Рони, дочь разбойника / Ронья, дочь разбойника / Sanzoku no Musume Ronja (2014) HDTVRip 720p | LE-Production
  • Генеральская дочь / The Generals Daughter (1999) DVDRip-AVC | P
  • Маневры любовные или дочь полка / Manewry miosne (1935) TVRip | A
  • Дочь генерала Панкратова / Crka generaa Pankratowa (1934) TVRip | A
  • Дочь моего босса / My Bosss Daughter (2003) BDRip (AVC) от ExKinoRay
  • Дочь Гидеона / Gideons Daughter (2005) DVDRip от Киномагия | L1


    • Комментарии (0):

      Информация

      Информация

        Посетители, находящиеся в группе Гости, не могут оставлять комментарии в данной новости.

        ↓ Меню



        ↓ Опрос

        А Вы добавили сайт в закладки?
        Да
        Не


        Top 10 за месяц (Фильмы)