.
Авторизация | Регистрация
Хочешь лучшие торренты? Добавь свой email!
Добавить
» » Сшиватели / Stitchers (2017) WEBRip-AVC | Hamster скачать торрент бесплатно




    Сшиватели / Stitchers (2017) WEBRip-AVC | Hamster скачать торрент бесплатно

    Опубликовал: Админ | Дата: 27-07-2017, 11:00 | Просмотров: 1



    Детально о кино
    Русское название: Сшиватели
    Русское название в мировом прокате: Stitchers
    Создали в: 2017
    Категория жанра: фантастика, драма, криминал
    Главный режиссер: Стив Майнер, Дженис Кук-Леонард, Роб Дж. Гринли

    Актеры
    Эмма Ишта, Кайл Харрис, Салли Ричардсон-Уитфилд, Ритеш Раджан, Эллисон Скальотти, Дэймон Дэйуб, Сола Бэмис, Росс Курт Ле, Камерон Бриттон, Кайли Куинн

    Сюжет фильма

    Девушка принята на работу в тайное правительственное учреждение, чтобы проникать в разум недавно умерших и использовать их воспоминания для расследования убийств и тайн, которые иначе ушли бы в могилу.

    Снималось в: США
    Киностудия: Prodco
    Время просмотра: 7 x ~ 00: 42: 00
    Перевод текста: Любительский двухголосный, закадровый HamsterStudio
    Файл
    Кодек для видео: H.264
    Качество фильма: WEBRip-AVC
    Информация о видео: AVC, 1152x648 (16: 9), 23.976 fps ~ 2370 Kbps
    Информация о звуке:
    AC3, 48 KHz 2 ch ~ 192 Kb/s (русский)
    AC3, 48 KHz 2 ch ~ 192 Kb/s (английский)
    Субтитры: отсутствуют
    MI:

    Общее
    Уникальный идентификатор : 219392249184123939320946183061986136113 (0xA50D6904A3462052BC7ECE9F830CD031)
    Полное имя : Q: TorFStitchers_S03Stitchers.S03E01.HamsterStudio.mkv
    Формат : Matroska
    Версия формата : Version 2
    Размер файла : 821 Мбайт
    Продолжительность : 42 м.
    Общий поток : 2731 Кбит/сек
    Дата кодирования : UTC 2017-06-28 09: 55: 42
    Программа кодирования : mkvmerge v5.4.0 (;Piper;) built on Mar 10 2012 13: 34: 39
    Библиотека кодирования : libebml v1.2.3 + libmatroska v1.3.0
    DURATION : 00: 42: 03.187000000
    NUMBER_OF_FRAMES : 60493
    NUMBER_OF_BYTES : 739552006
    _STATISTICS_WRITING_APP : mkvmerge v11.0.0 (;Alive;) 32bit
    _STATISTICS_WRITING_DATE_UTC : 2017-06-06 01: 12: 51
    _STATISTICS_TAGS : BPS DURATION NUMBER_OF_FRAMES NUMBER_OF_BYTES
    Видео
    Идентификатор : 1
    Формат : AVC
    Формат/Информация : Advanced Video Codec
    Профиль формата : Main@L3.1
    Параметр CABAC формата : Да
    Параметр ReFrames формата : 2 кадра
    Идентификатор кодека : V_MPEG4/ISO/AVC
    Продолжительность : 42 м.
    Битрейт : 2372 Кбит/сек
    Ширина : 1152 пикселя
    Высота : 648 пикселей
    Соотношение сторон : 16: 9
    Частота кадров : 23, 976 кадра/сек
    Частота кадров в оригинале : 24, 000 кадра/сек
    Цветовое пространство : YUV
    Субдискретизация насыщенности : 4: 2: 0
    Битовая глубина : 8 бит
    Тип развёртки : Прогрессивная
    Бит/(Пиксели*Кадры) : 0.133
    Размер потока : 690 Мбайт (84%)
    Библиотека кодирования : x264 core 148 r2579M 73ae2d1
    Настройки программы : cabac=1/ref=2/deblock=1: 0: 0/analyse=0x1: 0x111/me=hex/subme=2/psy=1/psy_rd=1.00: 0.00/mixed_ref=0/me_range=16/chroma_me=1/trellis=0/8x8dct=0/cqm=0/deadzone=21, 11/fast_pskip=1/chroma_qp_offset=0/threads=4/lookahead_threads=1/sliced_threads=0/nr=250/decimate=1/interlaced=0/bluray_compat=0/stitchable=1/constrained_intra=0/bframes=0/weightp=1/keyint=250/keyint_min=24/scenecut=40/intra_refresh=0/rc_lookahead=10/rc=2pass/mbtree=1/bitrate=2372/ratetol=1.0/qcomp=0.60/qpmin=5/qpmax=69/qpstep=4/cplxblur=20.0/qblur=0.5/ip_ratio=1.40/aq=1: 1.00
    Язык : English
    Default : Да
    Forced : Нет
    Аудио #1
    Идентификатор : 2
    Формат : AC-3
    Формат/Информация : Audio Coding 3
    Расширение режима : CM (complete main)
    Идентификатор кодека : A_AC3
    Продолжительность : 42 м.
    Вид битрейта : Постоянный
    Битрейт : 192 Кбит/сек
    Каналы : 2 канала
    Расположение каналов : Front: L R
    Частота : 48, 0 КГц
    Битовая глубина : 16 бит
    Метод сжатия : С потерями
    Задержка видео : -42 мс.
    Размер потока : 57, 8 Мбайт (7%)
    Заголовок : Hamster
    Язык : Russian
    Default : Да
    Forced : Нет
    Аудио #2
    Идентификатор : 3
    Формат : AC-3
    Формат/Информация : Audio Coding 3
    Расширение режима : CM (complete main)
    Идентификатор кодека : A_AC3
    Продолжительность : 42 м.
    Вид битрейта : Постоянный
    Битрейт : 192 Кбит/сек
    Каналы : 2 канала
    Расположение каналов : Front: L R
    Частота : 48, 0 КГц
    Битовая глубина : 16 бит
    Метод сжатия : С потерями
    Задержка видео : -42 мс.
    Размер потока : 57, 8 Мбайт (7%)
    Язык : English
    Default : Нет
    Forced : Нет

    Скриншоты

    ПРИСУТСТВУЕТ ГОЛОСОВАЯ РЕКЛАМА В НАЧАЛЕ И КОНЦЕ СЕРИИ

    Онлайн видео Сшиватели


    Размер скачиваемого торрента: 5.62 GB (6030359566 Bytes)

    Сшиватели/Stitchers (2017) WEBRip-AVC | Hamster
    загрузка...
    Рейтинг →
     (голосов: 1, оценка 4/5, голосовать можно 1 раз )

    Другие торренты по теме:

  • Сшиватели / Stitchers (2015) WEB-DLRip | LevshaFilm
  • Сшиватели / Stitchers (2015) HDTV 720p | L1
  • Сшиватели / Stitchers (2015) HDTV, WEB-DL 720p | L1
  • Сшиватели / Stitchers (2016) HDTVRip 720p, WEB-DLRip 720p | L2
  • Сшиватели / Stitchers (2015-2016) HDTVRip | LevshaFilm
  • Сшиватели / Stitchers (2015-2016) HDTVRip | LevshaFilm
  • Сшиватели / Stitchers (2017) WEBRip | L2
  • Сшиватели / Stitchers (2015) WEBRip 1080p | LevshaFilm


    • Комментарии (0):

      Информация

      Информация

        Посетители, находящиеся в группе Гости, не могут оставлять комментарии в данной новости.

        ↓ Меню



        ↓ Опрос

        А Вы добавили сайт в закладки?
        Да
        Не


        Top 10 за месяц (Фильмы)