.
Авторизация | Регистрация
Хочешь лучшие торренты? Добавь свой email!
Добавить
» » Потерянный город / The Lost City (2005) BDRip 720p от NNNB | D скачать торрент бесплатно




    Потерянный город / The Lost City (2005) BDRip 720p от NNNB | D скачать торрент бесплатно

    Опубликовал: Админ | Дата: 24-07-2017, 11:00 | Просмотров: 0


    Потерянный город/The Lost City
    A place you leave is a place that lives forever

    Русское название: Потерянный город
    Русское название в мировом прокате: The Lost City
    Создали в: 2005
    Категория жанра: драма, мелодрама
    Снималось в: США
    Главный режиссер: Энди Гарсиа

    Актеры
    Энди Гарсиа , Билл Мюррей , Инес Састре , Стивен Бауэр , Дастин Хоффман , Ричард Брэдфорд , Нестор Карбонелл , Нельсон Маркес , Хулио Оскар Мечосо , Томас Милиан , Элизабет Пенья , Джоанна Фернандес
    Перевод текста: Дублированный


    Сюжет фильма

    1958 год. Столица Кубы - Гавана - идеальное место для отдыха и развлечений многих людей. Однако есть и те, кому пришелся не по нраву диктаторский режим Батисты. Революционное движение под предводительством Фиделя Кастро и Эрнесто Че Гевары стремительно набирает силу и готовится совершить переворот в Гаване...

    Качество фильма: BDRip 720p
    Тип видео: AVC (библиотека кодирования x.264)
    Контейнер (Расширение): MKV
    Информация о видео: 1280x720, 7846 Кбит/сек, 23, 976 кадр/сек, 0, 355 Бит/Пиксели*Кадры
    Информация о звуке №1: русский/AC3/5.1/48 kHz/448 kbps / |Дублированный|
    Информация о звуке №2: английский/AC3/5.1/48 kHz/640 kbps /
    Субтитры: русские, английские
    Навигация по главам(Чаптеры): есть
    Время просмотра: 02: 24: 20
    Автор рипа: Группа:
    MediaInfo

    Format : Matroska
    Format version : Version 2
    File size : 9.01 GiB
    Duration : 2 h 24 min
    Overall bit rate : 8 932 kb/s
    Movie name : The Lost City.(2005).BDRip.720p.denis100
    Encoded date : UTC 2017-07-23 07: 05: 47
    Writing application : mkvmerge v5.8.0 (;No Sleep/Pillow;) built on Sep 2 2012 15: 37: 04
    Writing library : libebml v1.2.3 + libmatroska v1.3.0
    Video
    ID : 1
    Format : AVC
    Format/Info : Advanced Video Codec
    Format profile : High@L4.1
    Format settings, CABAC : Yes
    Format settings, ReFrames : 9 frames
    Codec ID : V_MPEG4/ISO/AVC
    Duration : 2 h 24 min
    Bit rate : 7 846 kb/s
    Width : 1 280 pixels
    Height : 720 pixels
    Display aspect ratio : 16: 9
    Frame rate mode : Constant
    Frame rate : 23.976 (24000/1001) FPS
    Color space : YUV
    Chroma subsampling : 4: 2: 0
    Bit depth : 8 bits
    Scan type : Progressive
    Bits/(Pixel*Frame) : 0.355
    Stream size : 7.73 GiB (86%)
    Title : The Lost City.(2005).BDRip.720p.denis100
    Writing library : x264 core 152 r2851 ba24899
    Encoding settings : cabac=1/ref=9/deblock=1: -3: -3/analyse=0x3: 0x133/me=umh/subme=11/psy=1/psy_rd=1.00: 0.15/mixed_ref=1/me_range=32/chroma_me=1/trellis=2/8x8dct=1/cqm=0/deadzone=21, 11/fast_pskip=0/chroma_qp_offset=-3/threads=6/lookahead_threads=1/sliced_threads=0/nr=0/decimate=1/interlaced=0/bluray_compat=0/constrained_intra=0/bframes=10/b_pyramid=2/b_adapt=2/b_bias=0/direct=3/weightb=1/open_gop=0/weightp=2/keyint=240/keyint_min=23/scenecut=40/intra_refresh=0/rc=2pass/mbtree=0/bitrate=7846/ratetol=1.0/qcomp=0.60/qpmin=0/qpmax=69/qpstep=4/cplxblur=20.0/qblur=0.5/ip_ratio=1.40/pb_ratio=1.30/aq=1: 0.75
    Language : English
    Default : Yes
    Forced : No
    Audio #1
    ID : 2
    Format : AC-3
    Format/Info : Audio Coding 3
    Mode extension : CM (complete main)
    Format settings, Endianness : Big
    Codec ID : A_AC3
    Duration : 2 h 24 min
    Bit rate mode : Constant
    Bit rate : 448 kb/s
    Channel(s) : 6 channels
    Channel positions : Front: L C R, Side: L R, LFE
    Sampling rate : 48.0 kHz
    Frame rate : 31.250 FPS (1536 spf)
    Compression mode : Lossy
    Stream size : 463 MiB (5%)
    Title : DUB
    Language : Russian
    Default : Yes
    Forced : No
    Audio #2
    ID : 3
    Format : AC-3
    Format/Info : Audio Coding 3
    Mode extension : CM (complete main)
    Format settings, Endianness : Big
    Codec ID : A_AC3
    Duration : 2 h 24 min
    Bit rate mode : Constant
    Bit rate : 640 kb/s
    Channel(s) : 6 channels
    Channel positions : Front: L C R, Side: L R, LFE
    Sampling rate : 48.0 kHz
    Frame rate : 31.250 FPS (1536 spf)
    Compression mode : Lossy
    Stream size : 661 MiB (7%)
    Language : English
    Default : No
    Forced : No
    Text #1
    ID : 4
    Format : UTF-8
    Codec ID : S_TEXT/UTF8
    Codec ID/Info : UTF-8 Plain Text
    Language : Russian
    Default : No
    Forced : No
    Text #2
    ID : 5
    Format : UTF-8
    Codec ID : S_TEXT/UTF8
    Codec ID/Info : UTF-8 Plain Text
    Language : English
    Default : No
    Forced : No
    Menu
    00: 00: 00.000 : en: 00: 00: 00.000
    00: 11: 20.054 : en: 00: 11: 20.054
    00: 18: 02.372 : en: 00: 18: 02.372
    00: 26: 38.013 : en: 00: 26: 38.013
    00: 36: 58.883 : en: 00: 36: 58.883
    00: 42: 48.399 : en: 00: 42: 48.399
    00: 47: 40.190 : en: 00: 47: 40.190
    01: 01: 36.192 : en: 01: 01: 36.192
    01: 13: 26.735 : en: 01: 13: 26.735
    01: 25: 47.809 : en: 01: 25: 47.809
    01: 39: 53.153 : en: 01: 39: 53.153
    01: 50: 01.886 : en: 01: 50: 01.886
    02: 02: 52.531 : en: 02: 02: 52.531
    02: 11: 17.661 : en: 02: 11: 17.661
    02: 15: 22.322 : en: 02: 15: 22.322
    02: 19: 31.529 : en: 02: 19: 31.529
    Скриншоты


    Онлайн видео Потерянный город


    Размер скачиваемого торрента: 9.01 GB (9669358417 Bytes)

    Потерянный город/The Lost City (2005) BDRip 720p от NNNB | D
    загрузка...
    Рейтинг →
     (голосов: 1, оценка 3/5, голосовать можно 1 раз )

    Другие торренты по теме:

  • Потерянный город / The Lost City (2005) BDRip от HQCLUB
  • Потерянный город / The Lost City (2005) BDRip 1080p | D, P скачать через торрент бесплатно
  • Потерянный город / The Lost City (2005) BDRip-AVC | D
  • Потерянный город / The Lost City (2005) Blu-Ray Remux 1080p | D
  • Джейн и потерянный город / Jane and the Lost City (1987) DVDRip | P2
  • Погоня за приключениями: Потерянный город (2016) PC


    • Комментарии (0):

      Информация

      Информация

        Посетители, находящиеся в группе Гости, не могут оставлять комментарии в данной новости.

        ↓ Меню



        ↓ Опрос

        А Вы добавили сайт в закладки?
        Да
        Не


        Top 10 за месяц (Фильмы)