.
Авторизация | Регистрация
Хочешь лучшие торренты? Добавь свой email!
Добавить
» » Сделка с дьяволом / The Covenant (2006) WEB-DL 1080p | D | Open Matte скачать торрент бесплатно




    Сделка с дьяволом / The Covenant (2006) WEB-DL 1080p | D | Open Matte скачать торрент бесплатно

    Опубликовал: Админ | Дата: 24-07-2017, 11:00 | Просмотров: 0



    Детально о кино
    Русское название: Сделка с дьяволом
    Русское название в мировом прокате: The Covenant
    Создали в: 2006
    Категория жанра: ужасы, фэнтези, боевик, триллер
    Главный режиссер: Ренни Харлин

    Актеры
    Стивен Стрейт, Лаура Рэмси, Себастьян Стэн, Тейлор Китч, Чейс Кроуфорд, Тоби Хемингуэй, Джессика Лукас, Кайл Шмид, Венди Крюсон, Стивен МакХэтти

    Сюжет фильма

    Четыре подростка, принадлежащих к древней касте людей, обладающих сверхъестественными способностями, должны остановить зло, которое они сами когда-то выпустили на волю. Но, чтобы успешно справиться со своей миссией, им необходимо научиться доверять друг другу.

    Снималось в: США
    Киностудия: Eyetronics, Lakeshore Entertainment, Sandstorm Films, Screen Gems
    Время просмотра: 01: 37: 18
    Перевод текста: Профессиональный (дублированный) R5
    Файл
    Качество фильма: WEB-DL 1080p
    Тип видео: Matroska
    Информация о видео: 1920x1080 at 23.976 fps, MPEG-4 AVC, ~9600 kbps avg
    Информация о звуке#1: Russian: 48 kHz, AC3, 3/2 (L, C, R, l, r) + LFE ch, ~448 kbps avg |Дубляж, R5|
    Информация о звуке#2: English: 48 kHz, EAC3, 3/2 (L, C, R, l, r) + LFE ch, ~640 kbps avg
    Субтитры: Russian, English
    ***Релиз - spartanec163.
    Знаете ли вы, что...
    Все пауки, которых насылал Чейз были сделаны с помощью компьютерной графики.
    Съемки внешнего вида Академии Спенсер происходили в Университете Бишопа, в Шербруке, Квебек, отсняты в конце 2005 года.
    Ренни Харлин, известен тем, что демонстрирует в своих фильмах предметы финской культуры. В Сделке он вешает на стену Сары известную финскую картину, нарисованную Хьюго Симбергом. Она назвается Раненый ангел — на ней изображен ангел и поддерживающие его два мальчика.
    Согласно комментариям на DVD, съемки пляжной вечеринки происходили в декабре. Первоначальное место съемки незадолго до их начала было затоплено и сцены пришлось переснимать на новой локации в последнюю минуту.
    Во время лекции по Стивену Кингу, Рид произносит фразу: Ловец снов — это ништяк!. Книга рассказывает о четырех парнях, обладающих сверхъестественной силой, довольно близко к сюжету фильма.
    Blu-ray vs Open Matte
    http://screenshotcomparison.com/comparison/216623
    MediaInfo
    Общее
    Уникальный идентификатор : 223399985836420175786415591639797208855 (0xA81145B0DA3BBF64A6E212D822241717)
    Полное имя : The.Covenant.2006.Open.Matte.1080p.WEB-DL.Rus.Eng.mkv
    Формат : Matroska
    Версия формата : Version 4/Version 2
    Размер файла : 7, 44 Гбайт
    Продолжительность : 1 ч. 37 м.
    Режим общего битрейта : Переменный
    Общий поток : 10, 9 Мбит/сек
    Название фильма : The.Covenant.2006.Open.Matte.1080p.WEB-DL.Rus.Eng-spartanec163
    Дата кодирования : UTC 2017-07-23 15: 33: 32
    Программа кодирования : mkvmerge v8.3.0 (;Over the Horizon;) 64bit
    Библиотека кодирования : libebml v1.3.1 + libmatroska v1.4.2
    Видео
    Идентификатор : 1
    Формат : AVC
    Формат/Информация : Advanced Video Codec
    Профиль формата : High@L4.0
    Параметр CABAC формата : Да
    Параметр ReFrames формата : 4 кадра
    Идентификатор кодека : V_MPEG4/ISO/AVC
    Продолжительность : 1 ч. 37 м.
    Вид битрейта : Переменный
    Битрейт : 9644 Кбит/сек
    Максимальный битрейт : 15, 0 Мбит/сек
    Ширина : 1920 пикселей
    Высота : 1080 пикселей
    Соотношение сторон : 16: 9
    Режим частоты кадров : Постоянный
    Частота кадров : 23, 976 кадра/сек
    Цветовое пространство : YUV
    Субдискретизация насыщенности : 4: 2: 0
    Битовая глубина : 8 бит
    Тип развёртки : Прогрессивная
    Бит/(Пиксели*Кадры) : 0.194
    Размер потока : 6, 55 Гбайт (88%)
    Заголовок : WEB-DL 1080p (Amazon)
    Язык : English
    Default : Да
    Forced : Нет
    Основные цвета : BT.709
    Характеристики трансфера : BT.709
    Коэффициенты матрицы : BT.709
    Аудио #1
    Идентификатор : 2
    Формат : AC-3
    Формат/Информация : Audio Coding 3
    Расширение режима : CM (complete main)
    Параметр Endianness формата : Big
    Идентификатор кодека : A_AC3
    Продолжительность : 1 ч. 37 м.
    Вид битрейта : Постоянный
    Битрейт : 448 Кбит/сек
    Каналы : 6 каналов
    Расположение каналов : Front: L C R, Side: L R, LFE
    Частота : 48, 0 КГц
    Битовая глубина : 16 бит
    Метод сжатия : С потерями
    Размер потока : 312 Мбайт (4%)
    Заголовок : AC3 5.1 448Kbps (Дубляж)
    Язык : Russian
    Default : Да
    Forced : Нет
    Аудио #2
    Идентификатор : 3
    Формат : E-AC-3
    Формат/Информация : Audio Coding 3
    Параметр Endianness формата : Big
    Идентификатор кодека : A_EAC3
    Продолжительность : 1 ч. 37 м.
    Вид битрейта : Постоянный
    Битрейт : 640 Кбит/сек
    Каналы : 6 каналов
    Расположение каналов : Front: L C R, Side: L R, LFE
    Частота : 48, 0 КГц
    Метод сжатия : С потерями
    Размер потока : 445 Мбайт (6%)
    Заголовок : E-AC3 5.1 640Kbps (Оригинал, Amazon)
    Язык : English
    Default : Нет
    Forced : Нет
    Текст #1
    Идентификатор : 4
    Формат : UTF-8
    Идентификатор кодека : S_TEXT/UTF8
    Идентификатор кодека/Информация : UTF-8 Plain Text
    Язык : Russian
    Default : Нет
    Forced : Нет
    Текст #2
    Идентификатор : 5
    Формат : UTF-8
    Идентификатор кодека : S_TEXT/UTF8
    Идентификатор кодека/Информация : UTF-8 Plain Text
    Язык : English
    Default : Нет
    Forced : Нет
    Скриншоты



    Онлайн видео Сделка с дьяволом


    Размер скачиваемого торрента: 7.44 GB (7990496881 Bytes)

    Сделка с дьяволом/The Covenant (2006) WEB-DL 1080p | D | Open Matte
    загрузка...
    Рейтинг →
     (голосов: 1, оценка 4/5, голосовать можно 1 раз )

    Другие торренты по теме:

  • Сделка с дьяволом / The Covenant (2006) BDRip-AVC от potroks | D
  • Сделка с дьяволом / The Covenant (2006) HDRip от Scarabey | D
  • Сделка с дьяволом / The Covenant (2006) BDRip от Rulya74 скачать через торрент бесплатно
  • Сделка с дьяволом / The Covenant (2006) HDRip-AVC | D
  • Сделка с дьяволом / The Covenant (2006) WEB-DLRip от Scarabey | Open Matte | D


    • Комментарии (0):

      Информация

      Информация

        Посетители, находящиеся в группе Гости, не могут оставлять комментарии в данной новости.

        ↓ Меню



        ↓ Опрос

        А Вы добавили сайт в закладки?
        Да
        Не


        Top 10 за месяц (Фильмы)