.
Авторизация | Регистрация
Хочешь лучшие торренты? Добавь свой email!
Добавить
» » Ярость в клетке / Caged Fury (1990) TVRip | НТВ скачать торрент бесплатно




    Ярость в клетке / Caged Fury (1990) TVRip | НТВ скачать торрент бесплатно

    Опубликовал: Админ | Дата: 27-02-2015, 11:09 | Просмотров: 597

    Страна: США
    Жанр: боевик
    Год выпуска: 1990
    Продолжительность: 01:31:21

    Перевод: Профессиональный (двухголосый закадровый) НТВ
    Cубтитры: нет
    Оригинальная аудиодорожка: нет

    Режиссер: Билл Миллинг / Bill Milling

    В ролях: Эрик Эстрада, Ричард Барати, Роксана Майклс, Пол Л. Смит, Джеймс Хонг, Майкл Паркс, Джек Картер, Эйприл Даун Доллархайд, Блейк Бахнер, Елена Сахаган, Ти Рендольф, Бино, Грегори Скотт Камминс и другие

    Описание: Действие фильма происходит в тюрьме, организованной преступниками-авантюристами для доверчивых девушек, приезжающих в Голливуд в поисках актерской славы. В ней этих несчастных не просто запирают за решетку, но еще и учат сексуальной уступчивости.

    Доп. информация: сценарий: Билл Миллинг
    продюсеры: Боб Галлахер, Эрик Эстрада, Лаура Герарди
    оператор: Кеннет Х. Витрак
    композитор: Джо Делия
    монтаж: Мэттью Маллинсон, Брайан О’Хара
    премьера (мир): 15 августа 1990

    Сэмпл: http://www.sendspace.com/file/nz36u0

    Качество видео: TVRip
    Формат видео: MPEG-PS

    Видео: MPEG2 Video, 720x576 (4:3) 25.00fps, ~6144, 0.593 bit/pixel
    Аудио: MPEG Audio, 48000Hz, 2/0 (L,R) ch, 192 Kbps
    MediaInfo

    Полное имя : G:DVDЯрость в клетке (1989)Caged Fury.mpg
    Формат : MPEG-PS
    Размер файла : 4,10 Гбайт
    Продолжительность : 1 ч. 31 м.
    Общий поток : 6421 Кбит/сек

    Видео
    Идентификатор : 224 (0xE0)
    Формат : MPEG Video
    Версия формата : Version 2
    Профиль формата : Main@Main
    Параметр BVOP формата : Да
    Параметр матрицы формата : По умолчанию
    Продолжительность : 1 ч. 31 м.
    Вид битрейта : Переменный
    Битрейт : 6144 Кбит/сек
    Ширина : 720 пикселей
    Высота : 576 пикселей
    Соотношение сторон : 4:3
    Частота кадров : 25,000 кадров/сек
    Стандарт вещания : PAL
    Цветовое пространство : YUV
    Субдискретизация насыщенности : 4:2:0
    Битовая глубина : 8 бит
    Тип развёртки : Прогрессивная
    Метод сжатия : С потерями
    Бит/(Пиксели*Кадры) : 0.593
    Размер потока : 3,89 Гбайт (95%)

    Аудио
    Идентификатор : 192 (0xC0)
    Формат : MPEG Audio
    Версия формата : Version 1
    Профиль формата : Layer 2
    Продолжительность : 1 ч. 31 м.
    Вид битрейта : Постоянный
    Битрейт : 192 Кбит/сек
    Каналы : 2 канала
    Частота : 48,0 КГц
    Метод сжатия : С потерями
    Размер потока : 125 Мбайт (3%)

    Скриншот c названием фильма


    Скриншоты




    Залил: DGEKIGAN
    Размер: 4.10 GB (4399951872 Bytes)
    загрузка...
    Рейтинг →
     (голосов: 1, оценка 4/5, голосовать можно 1 раз )

    Другие торренты по теме:

  • Ярость в Гарлеме / A Rage in Harlem (1991) HDTV 1080i от ClubTorrent | P2
  • Ярость в клетке / Caged Fury (1990) DVDRip | P2


    • Комментарии (0):

      Информация

      Информация

        Посетители, находящиеся в группе Гости, не могут оставлять комментарии в данной новости.

        ↓ Меню



        ↓ Опрос

        А Вы добавили сайт в закладки?
        Да
        Не


        Top 10 за месяц (Фильмы)