.
Авторизация | Регистрация
Хочешь лучшие торренты? Добавь свой email!
Добавить
» » Равнины Меркурия / Mercury Plains (2016) DVD-9 от NovaLan | L, L1 скачать торрент бесплатно




    Равнины Меркурия / Mercury Plains (2016) DVD-9 от NovaLan | L, L1 скачать торрент бесплатно

    Опубликовал: Админ | Дата: 26-03-2017, 11:00 | Просмотров: 0



    Детально о кино
    Русское название: Равнины Меркурия
    Русское название в мировом прокате: Mercury Plains
    Создали в: 2016
    Категория жанра: Боевик
    Главный режиссер: Чарльз Бурмейстер

    Актеры
    Скотт Иствуд, Анджела Сарафян, Ник Чинланд, Хорхе А. Хименес, Кэтерин Уиллис, Сью Рок, Майк Гассэвей, Кит Поулсон, Марк Хэнсон, Джастин Арнольд

    Сюжет фильма
    Столкнувшись с мрачным будущим, молодой человек сбегает в Мексику. Там он оказывается вовлечен в военизированную группу подростков, которые борются с картелями.
    Время просмотра: 01: 37: 53
    Перевод текста: Любительский многоголосый (Paradox Omskbird records), любительский одноголосый (datynet)
    Файл
    Кодек для видео: MPEG-2
    Качество фильма: DVD-9
    Информация о видео: MPEG2, PAL 16: 9 (720x576@1024x576) VBR, 25, 000 кадров/сек
    Информация о звуке: Русский/Английский/Немецкий DD 5.1 (448 Kbps), Русский DD 2.0 (192 Kbps)

    Меню
    DVDInfo

    Title:
    Size: 7.23 Gb ( 7 586 244 KBytes ) - DVD-9
    Enabled regions: 1, 2, 3, 4, 5, 6, 7, 8
    VTS_01 :
    Play Length: 00: 00: 25
    Video: PAL 16: 9 (720x576) VBR, Auto PanScan
    Audio:
    Not specified (Dolby AC3, 2 ch)
    VTS_02 :
    Play Length: 01: 37: 53
    Video: PAL 16: 9 (720x576) VBR, Auto PanScan
    Audio:
    Deutsch (Dolby AC3, 6 ch)
    English (Dolby AC3, 6 ch)
    Russian (Dolby AC3, 6 ch)
    Russian (Dolby AC3, 2 ch)
    VTS_03 :
    Play Length: 00: 01: 14
    Video: PAL 16: 9 (720x576) VBR, Auto PanScan
    Audio:
    Not specified (Dolby AC3, 6 ch)
    VTS_04 :
    Play Length: 00: 01: 46
    Video: PAL 16: 9 (720x576) VBR, Auto PanScan
    Audio:
    Not specified (Dolby AC3, 2 ch)
    VTS_05 :
    Play Length: 00: 01: 28
    Video: PAL 16: 9 (720x576) VBR, Auto PanScan
    Audio:
    Not specified (Dolby AC3, 6 ch)
    VTS_06 :
    Play Length: 00: 02: 00
    Video: PAL 16: 9 (720x576) VBR, Auto PanScan
    Audio:
    Not specified (Dolby AC3, 6 ch)
    VTS_07 :
    Play Length: 00: 01: 24
    Video: PAL 16: 9 (720x576) VBR, Auto PanScan
    Audio:
    Not specified (Dolby AC3, 6 ch)
    VTS_08 :
    Play Length: 00: 01: 24
    Video: PAL 16: 9 (720x576) VBR, Auto PanScan
    Audio:
    Not specified (Dolby AC3, 6 ch)
    Menu Video:
    NTSC 4: 3 (720x480) VBR
    Auto PanScan, Auto Letterboxed
    Menu Deutsch Language Unit :
    Root Menu
    MediaInfo

    Общее
    Полное имя : G: ААА2Mercury PlainsVIDEO_TSVTS_02_1.VOB
    Формат : MPEG-PS
    Размер файла : 1024 Мбайт
    Продолжительность : 14 м.
    Режим общего битрейта : Переменный
    Общий поток : 9716 Кбит/сек
    Видео
    Идентификатор : 224 (0xE0)
    Формат : MPEG Video
    Версия формата : Version 2
    Профиль формата : Main@Main
    Параметр BVOP формата : Да
    Параметр матрицы формата : Выборочная
    Параметр GOP формата : M=3, N=12
    Продолжительность : 14 м.
    Вид битрейта : Переменный
    Битрейт : 8000 Кбит/сек
    Ширина : 720 пикселей
    Высота : 576 пикселей
    Соотношение сторон : 16: 9
    Частота кадров : 25, 000 кадров/сек
    Стандарт вещания : PAL
    Цветовое пространство : YUV
    Субдискретизация насыщенности : 4: 2: 0
    Битовая глубина : 8 бит
    Тип развёртки : Прогрессивная
    Метод сжатия : С потерями
    Бит/(Пиксели*Кадры) : 0.772
    TimeCode_FirstFrame : 00: 00: 00: 00
    TimeCode_Source : Group of pictures t_head
    Размер потока : 842 Мбайт (82%)
    Основные цвета : BT.601 PAL
    Характеристики трансфера : BT.470 System B, BT.470 System G
    Коэффициенты матрицы : BT.601
    Аудио #1
    Идентификатор : 189 (0xBD)-128 (0x80)
    Формат : AC-3
    Формат/Информация : Audio Coding 3
    Расширение режима : CM (complete main)
    Параметр Endianness формата : Big
    Режим смешивания : DVD-Video
    Продолжительность : 14 м.
    Вид битрейта : Постоянный
    Битрейт : 448 Кбит/сек
    Каналы : 6 каналов
    Расположение каналов : Front: L C R, Side: L R, LFE
    Частота : 48, 0 КГц
    Битовая глубина : 16 бит
    Метод сжатия : С потерями
    Размер потока : 47, 2 Мбайт (5%)
    Аудио #2
    Идентификатор : 189 (0xBD)-129 (0x81)
    Формат : AC-3
    Формат/Информация : Audio Coding 3
    Расширение режима : CM (complete main)
    Параметр Endianness формата : Big
    Режим смешивания : DVD-Video
    Продолжительность : 14 м.
    Вид битрейта : Постоянный
    Битрейт : 448 Кбит/сек
    Каналы : 6 каналов
    Расположение каналов : Front: L C R, Side: L R, LFE
    Частота : 48, 0 КГц
    Битовая глубина : 16 бит
    Метод сжатия : С потерями
    Размер потока : 47, 2 Мбайт (5%)
    Аудио #3
    Идентификатор : 189 (0xBD)-130 (0x82)
    Формат : AC-3
    Формат/Информация : Audio Coding 3
    Расширение режима : CM (complete main)
    Параметр Endianness формата : Big
    Режим смешивания : DVD-Video
    Продолжительность : 14 м.
    Вид битрейта : Постоянный
    Битрейт : 448 Кбит/сек
    Каналы : 6 каналов
    Расположение каналов : Front: L C R, Side: L R, LFE
    Частота : 48, 0 КГц
    Битовая глубина : 16 бит
    Метод сжатия : С потерями
    Размер потока : 47, 2 Мбайт (5%)
    Аудио #4
    Идентификатор : 189 (0xBD)-131 (0x83)
    Формат : AC-3
    Формат/Информация : Audio Coding 3
    Расширение режима : CM (complete main)
    Параметр Endianness формата : Big
    Режим смешивания : DVD-Video
    Продолжительность : 14 м.
    Вид битрейта : Постоянный
    Битрейт : 192 Кбит/сек
    Каналы : 2 канала
    Расположение каналов : Front: L R
    Частота : 48, 0 КГц
    Битовая глубина : 16 бит
    Метод сжатия : С потерями
    Размер потока : 20, 2 Мбайт (2%)
    Меню

    Скриншоты



    Релиз:
    Залил: YArl

    Онлайн видео Равнины Меркурия


    Размер скачиваемого торрента: 7.23 GB (7768313856 Bytes)

    Равнины Меркурия/Mercury Plains (2016) DVD-9 от NovaLan | L, L1
    загрузка...
    Рейтинг →
     (голосов: 1, оценка 4/5, голосовать можно 1 раз )

    Другие торренты по теме:

  • Равнины Меркурия / Mercury Plains / 2016 / ПМ / DVDRip
  • Равнины Меркурия / Mercury Plains (2016) HDRip от MegaPeer | L
  • Равнины Меркурия / Mercury Plains (2016) BDRip 1080p | L
  • Равнины Меркурия / Mercury Plains / 2016 / ПМ, ЛО / DVD-9


    • Комментарии (0):

      Информация

      Информация

        Посетители, находящиеся в группе Гости, не могут оставлять комментарии в данной новости.

        ↓ Меню



        ↓ Опрос

        А Вы добавили сайт в закладки?
        Да
        Не


        Top 10 за месяц (Фильмы)