.
Авторизация | Регистрация
Хочешь лучшие торренты? Добавь свой email!
Добавить
» » Щелкунчик и мышиный король / Nussknacker und Mauseknig (2015) HDTV 1080i | P скачать торрент бесплатно




    Щелкунчик и мышиный король / Nussknacker und Mauseknig (2015) HDTV 1080i | P скачать торрент бесплатно

    Опубликовал: Админ | Дата: 6-03-2017, 11:02 | Просмотров: 0



    Детально о кино
    Русское название: Щелкунчик и мышиный король
    Русское название в мировом прокате: Nussknacker und Mausek?nig
    Создали в: 2015
    Категория жанра: сказка, фэнтези, семейный
    Главный режиссер: Франк Стойе

    Актеры
    Мала Эмде, Леонард Зейд, Гильдо Хорн, Анатоль Таубман, Бриджит Хобмайер, Юрген Тонкель, Йоэль Басман, Свен Гильник

    Сюжет фильма

    Брат и сестра Фриц и Мари получают в подарок на Рождество от своего крестного Дроссельмейера Волшебную коробку и Щелкунчика. Ночью Мари просыпается и обнаруживает в гостиной Мышиного короля и его свиту. Щелкунчик оживает и хочет защитить Мари. Когда она берет его в руки, то сама оказывается в Волшебной стране.
    По мотивам сказки Эрнста Теодора Амадея Гофмана Щелкунчик и мышиный король.

    Создали в: Германия/Bremedia Produktion
    Время просмотра: 00: 58: 13
    Перевод текста: профессиональный (многоголосый закадровый) Игмар
    Файл
    Качество фильма: HDTV 1080i
    Тип видео: MPEG-TS
    Информация о видео: AVC, 1920x1080 (16: 9), 25.000 fps, 6347 kbps, 0.122 bit/pixel
    Информация о звуке: MP2 2.0, 48 kHz, 192 kbps
    MediaInfo
    Формат : MPEG-TS
    Размер файла : 2, 80 Гбайт
    Продолжительность : 58 м.
    Режим общего битрейта : Переменный
    Общий поток : 6881 Кбит/сек
    Видео
    Идентификатор : 3731 (0xE93)
    Идентификатор меню : 117 (0x75)
    Формат : AVC
    Формат/Информация : Advanced Video Codec
    Профиль формата : Main@L4
    Параметр CABAC формата : Да
    Параметр ReFrames формата : 4 кадра
    Параметр GOP формата : M=1, N=32
    Идентификатор кодека : 27
    Продолжительность : 58 м.
    Битрейт : 6347 Кбит/сек
    Ширина : 1920 пикселей
    Высота : 1080 пикселей
    Соотношение сторон : 16: 9
    Частота кадров : 25, 000 кадров/сек
    Цветовое пространство : YUV
    Субдискретизация насыщенности : 4: 2: 0
    Битовая глубина : 8 бит
    Тип развёртки : Чересстрочная
    Порядок развёртки : Верхнее поле первое
    Бит/(Пиксели*Кадры) : 0.122
    Размер потока : 2, 58 Гбайт (92%)
    Цветовой диапазон : Limited
    Основные цвета : BT.709
    Характеристики трансфера : BT.709
    Коэффициенты матрицы : BT.709
    Аудио
    Идентификатор : 3732 (0xE94)
    Идентификатор меню : 117 (0x75)
    Формат : MPEG Audio
    Версия формата : Version 1
    Профиль формата : Layer 2
    Идентификатор кодека : 3
    Продолжительность : 58 м.
    Вид битрейта : Постоянный
    Битрейт : 192 Кбит/сек
    Каналы : 2 канала
    Частота : 48, 0 КГц
    Метод сжатия : С потерями
    Размер потока : 80, 0 Мбайт (3%)
    Язык : Russian
    Скриншоты

    Залил: makkaronni

    Онлайн видео Щелкунчик и мышиный король


    Размер скачиваемого торрента: 2.80 GB (3005189964 Bytes)

    Щелкунчик и мышиный король/Nussknacker und Mauseknig (2015) HDTV 1080i | P
    загрузка...
    Рейтинг →
     (голосов: 1, оценка 5/5, голосовать можно 1 раз )

    Другие торренты по теме:

  • Принц Щелкунчик / The Nutcracker Prince (1990) DVDRip
  • Пётр Чайковский - Щелкунчик / Tchaikovsky: The Nutcracker (2012) BDRip 720p
  • Балет. Пётр Чайковский - Щелкунчик (2012) BDRip 720p
  • Эрнст Гофман - Щелкунчик (1966) (2008) WAVPack
  • П.И.Чайковский: Щелкунчик / Tchaikovsky: The Nutcracker (2011) BDRip 720p скачать через торрент бесплатно
  • Щелкунчик и Крысиный король / The Nutcracker (2009) BDRip от HQCLUB скачать через торрент бесплатно
  • Принц Щелкунчик / The Nutcracker Prince (1990) DVDRip-AVC | D, P, A
  • Щелкунчик и Крысиный Король / The Nutcracker / 2010 / ДБ, СТ / 3D (OU) / BDRip (720p)


    • Комментарии (0):

      Информация

      Информация

        Посетители, находящиеся в группе Гости, не могут оставлять комментарии в данной новости.

        ↓ Меню



        ↓ Опрос

        А Вы добавили сайт в закладки?
        Да
        Не


        Top 10 за месяц (Фильмы)