.
Авторизация | Регистрация
Хочешь лучшие торренты? Добавь свой email!
Добавить
» » По соображениям совести / Hacksaw Ridge (2016) BDRemux 1080p от ExKinoRay | L скачать торрент бесплатно




    По соображениям совести / Hacksaw Ridge (2016) BDRemux 1080p от ExKinoRay | L скачать торрент бесплатно

    Опубликовал: Админ | Дата: 12-02-2017, 11:00 | Просмотров: 0



    Детально о кино
    Русское название: По соображениям совести
    Русское название в мировом прокате: Hacksaw Ridge
    Создали в: 2016
    Категория жанра: Драма, военный, история
    Главный режиссер: Мэл Гибсон

    Актеры
    Эндрю Гарфилд, Ричард Пирос, Джейкоб Уорнер, Мило Гибсон, Дарси Брайс, Роман Геррьеро, Джеймс Лагтон, Касия Стелмах, Хьюго Уивинг, Рэйчел Гриффитс, Сэм Уортингтон, Тереза Палмер, Винс Вон
    О фильме:
    В самый разгар Второй мировой войны молодой рабочий из американской провинции Десмонд Досс записывается добровольцем в армию. Проблема в том, что его религия отвергает насилие и запрещает брать в руки оружие. Десмонд становится полевым санитаром, однако его командиры требуют, чтобы Досс, как и любой солдат, научился метко стрелять. Пройдя через множество трудных испытаний, Десмонд оказывается в самом пекле боев за остров Окинава. Там, в кровавом аду, ему предстоит доказать себе и другим, чего он стоит на поле боя.

    Снималось в: Австралия, США
    Киностудия: Cross Creek Pictures, Demarest Media, IM Global
    Время просмотра: 02: 20: 14
    Перевод текста: Любительский многоголосый (закадровый) | ParadoxOmskbird
    Файл
    Качество фильма: BDRemux 1080p
    Информация о видео: MPEG-4 AVC, 1920x1080, 25.4 Mbit/s, 23.976 fps
    Информация о звуке:
    Информация о звуке #01: 48 kHz, DTS, 5.1, 1510 Kbps | Любительский многоголосый (закадровый) |
    Информация о звуке #02: 48 kHz, AC3, 5.1, 640 Kbps | Любительский многоголосый (закадровый) |
    Информация о звуке #03: 48 kHz, Atmos TrueHD, 7.1, 4198 kbps | Оригинал |
    Субтитры: Английские
    MI
    General
    Unique ID : 224618548797141568657838113154612334759 (0xA8FBF57BBC97B34C95145FA4BDE410A7)
    Complete name : G: VideoHacksaw.Ridge.2016.BDREMUX.1080p.ExKinoRay.mkv
    Format : Matroska
    Format version : Version 4/Version 2
    File size : 31.0 GiB
    Duration : 2 h 19 min
    Overall bit rate mode : Variable
    Overall bit rate : 31.9 Mb/s
    Encoded date : UTC 2017-02-11 16: 21: 59
    Writing application : mkvmerge v8.3.0 (;Over the Horizon;) 64bit
    Writing library : libebml v1.3.1 + libmatroska v1.4.2
    Video
    ID : 1
    Format : AVC
    Format/Info : Advanced Video Codec
    Format profile : High@L4.1
    Format settings, CABAC : Yes
    Format settings, ReFrames : 4 frames
    Codec ID : V_MPEG4/ISO/AVC
    Duration : 2 h 19 min
    Bit rate mode : Variable
    Bit rate : 25.4 Mb/s
    Maximum bit rate : 36.0 Mb/s
    Width : 1 920 pixels
    Height : 1 080 pixels
    Display aspect ratio : 16: 9
    Frame rate mode : Constant
    Frame rate : 23.976 (23976/1000) FPS
    Original frame rate : 23.976 (24000/1001) FPS
    Color space : YUV
    Chroma subsampling : 4: 2: 0
    Bit depth : 8 bits
    Scan type : Progressive
    Bits/(Pixel*Frame) : 0.512
    Stream size : 24.8 GiB (80%)
    Language : English
    Default : Yes
    Forced : No
    Audio #1
    ID : 2
    Format : DTS
    Format/Info : Digital Theater Systems
    Mode : 16
    Format settings, Endianness : Big
    Codec ID : A_DTS
    Duration : 2 h 19 min
    Bit rate mode : Constant
    Bit rate : 1 510 kb/s
    Channel(s) : 6 channels
    Channel positions : Front: L C R, Side: L R, LFE
    Sampling rate : 48.0 kHz
    Frame rate : 93.750 FPS (512 spf)
    Bit depth : 24 bits
    Compression mode : Lossy
    Stream size : 1.47 GiB (5%)
    Title : MVO-DTS
    Language : Russian
    Default : Yes
    Forced : No
    Audio #2
    ID : 3
    Format : AC-3
    Format/Info : Audio Coding 3
    Mode extension : CM (complete main)
    Format settings, Endianness : Big
    Codec ID : A_AC3
    Duration : 2 h 19 min
    Bit rate mode : Constant
    Bit rate : 640 kb/s
    Channel(s) : 6 channels
    Channel positions : Front: L C R, Side: L R, LFE
    Sampling rate : 48.0 kHz
    Frame rate : 31.250 FPS (1536 spf)
    Bit depth : 16 bits
    Compression mode : Lossy
    Stream size : 638 MiB (2%)
    Title : MVO-AC3
    Language : Russian
    Default : No
    Forced : No
    Audio #3
    ID : 4
    Format : Atmos/TrueHD
    Codec ID : A_TRUEHD
    Duration : 2 h 19 min
    Bit rate mode : Variable
    Bit rate : 4 198 kb/s
    Maximum bit rate : 5 799 kb/s
    Channel(s) : Object Based/8 channels
    Channel positions : Object Based/Front: L C R, Side: L R, Back: L R, LFE
    Sampling rate : /48.0 kHz
    Frame rate : 1 200.000 FPS (40 spf)
    Compression mode : Lossless
    Delay relative to video : 1 ms
    Stream size : 4.09 GiB (13%)
    Title : Original
    Language : English
    Default : No
    Forced : No
    Text #1
    ID : 5
    Format : UTF-8
    Codec ID : S_TEXT/UTF8
    Codec ID/Info : UTF-8 Plain Text
    Duration : 2 h 8 min
    Bit rate : 48 b/s
    Count of elements : 1342
    Stream size : 46.1 KiB (0%)
    Title : Full
    Language : English
    Default : No
    Forced : No
    Text #2
    ID : 6
    Format : UTF-8
    Codec ID : S_TEXT/UTF8
    Codec ID/Info : UTF-8 Plain Text
    Duration : 2 h 9 min
    Bit rate : 55 b/s
    Count of elements : 1655
    Stream size : 53.2 KiB (0%)
    Title : SDH
    Language : English
    Default : No
    Forced : No
    Menu
    00: 00: 00.000 : en: Chapter 1
    00: 09: 18.766 : en: Chapter 2
    00: 18: 41.995 : en: Chapter 3
    00: 26: 34.509 : en: Chapter 4
    00: 33: 00.561 : en: Chapter 5
    00: 40: 04.151 : en: Chapter 6
    00: 50: 07.212 : en: Chapter 7
    00: 57: 01.542 : en: Chapter 8
    01: 04: 21.649 : en: Chapter 9
    01: 17: 50.207 : en: Chapter 10
    01: 23: 58.700 : en: Chapter 11
    01: 31: 21.726 : en: Chapter 12
    01: 39: 02.811 : en: Chapter 13
    01: 46: 07.569 : en: Chapter 14
    01: 59: 48.305 : en: Chapter 15
    02: 07: 13.292 : en: Chapter 16


    Релиз подготовил: Автор релиза:

    Онлайн видео По соображениям совести


    Размер скачиваемого торрента: 31.00 GB (33285931369 Bytes)

    По соображениям совести/Hacksaw Ridge (2016) BDRemux 1080p от ExKinoRay | L
    загрузка...
    Рейтинг →
     (голосов: 1, оценка 3/5, голосовать можно 1 раз )

    Другие торренты по теме:

  • По соображениям совести / Hacksaw Ridge (2016) DVDScr | Звук с CAMRip
  • По соображениям совести / Hacksaw Ridge (2016) WEB-DLRip от ExKinoRay | L
  • По соображениям совести / Hacksaw Ridge (2016) HDRip от MegaPeer | L
  • По соображениям совести / Hacksaw Ridge (2016) HDRip от MegaPeer | L
  • По соображениям совести / Hacksaw Ridge (2016) HDRip-AVC от ExKinoRay | L
  • По соображениям совести / Hacksaw Ridge (2016) HDRip от Scarabey | L
  • По соображениям совести / Hacksaw Ridge (2016) BDRip 1080p от ExKinoRay | L
  • По соображениям совести / Hacksaw Ridge (2016) BDRip от MegaPeer | L


    • Комментарии (0):

      Информация

      Информация

        Посетители, находящиеся в группе Гости, не могут оставлять комментарии в данной новости.

        ↓ Меню



        ↓ Опрос

        А Вы добавили сайт в закладки?
        Да
        Не


        Top 10 за месяц (Фильмы)