.
Авторизация | Регистрация
Хочешь лучшие торренты? Добавь свой email!
Добавить
» » Путь / The Path (2016) WEBRip 720p | OmskBird скачать торрент бесплатно




    Путь / The Path (2016) WEBRip 720p | OmskBird скачать торрент бесплатно

    Опубликовал: Админ | Дата: 11-02-2017, 11:01 | Просмотров: 0



    Детально о кино
    Русское название: Путь
    Русское название в мировом прокате: The Path
    Создали в: 2017
    Категория жанра: Драма
    Главный режиссер: Майк Кэхилл, Майкл Уивер

    Актеры
    Хью Дэнси, Аарон Пол, Мишель Монахэн, Али Ан, Питер Фридман, Макс Эрих, Ariana Chantelle Cordero, Кларк Миддлтон, Кайли Вернофф, Уитни Краудер ...

    Сюжет фильма

    На севере штата Нью-Йорк появляется неизвестный и загадочный религиозный культ, в самом центре которого оказываются переживающий кризис веры Эдди и его преданная жена Сара, а их неофициальным лидером становится амбициозный Кэл.

    Снималось в: США, Lucid Road Productions, True Jack Productions, Universal TV
    Время просмотра: ~ 00: 56: 29 серия
    Перевод текста: Любительский (многоголосый закадровый) |OMSKBIRD records
    Файл
    Кодек для видео: MPEG-4 AVC/H.264
    Качество фильма: WEBRip720p
    Информация о видео: 1280x720 (16: 9), 25, 000 fps, ~3000 kbps, 0.128 bit/pixel
    Информация о звуке:
    Информация о звуке rus: AAC, 48 kHz, 2 ch, 159 Kbps |OmskBird
    Субтитры: отсутствуют
    Реклама: присутствует
    Семпл

    Релиз:

    Релиз: OmskBird
    Роли озвучивали: Алексей Воленко, Павел Ярощик, Маргарита Сахно
    Перевод: Дарья Жмура
    Звукорежиссер: Павел Квентов
    Постер: Ксения Просветова
    MediaInfo:

    General
    Complete name : G: FilmsThe.Path.S02.720p.WEBRip.OmskBirdThe.Path.S02E01.720p.WEBRip.OmskBird.mp4
    Format : MPEG-4
    Format profile : Base Media/Version 2
    Codec ID : mp42 (mp42/mp41)
    File size : 1.11 GiB
    Duration : 50mn 48s
    Overall bit rate mode : Variable
    Overall bit rate : 3 138 Kbps
    Encoded date : UTC 2017-01-27 07: 27: 56
    Tagged date : UTC 2017-01-27 07: 28: 04
    ©TIM : 00: 00: 00: 00
    ©TSC : 25
    ©TSZ : 1
    Video
    ID : 1
    Format : AVC
    Format/Info : Advanced Video Codec
    Format profile : Main@L3.2
    Format settings, CABAC : Yes
    Format settings, ReFrames : 3 frames
    Codec ID : avc1
    Codec ID/Info : Advanced Video Coding
    Duration : 50mn 48s
    Bit rate : 2 945 Kbps
    Width : 1 280 pixels
    Height : 720 pixels
    Display aspect ratio : 16: 9
    Frame rate mode : Constant
    Frame rate : 25.000 fps
    Standard : PAL
    Color space : YUV
    Chroma subsampling : 4: 2: 0
    Bit depth : 8 bits
    Scan type : Progressive
    Bits/(Pixel*Frame) : 0.128
    Stream size : 1.05 GiB (94%)
    Language : English
    Encoded date : UTC 2017-01-27 07: 27: 56
    Tagged date : UTC 2017-01-27 07: 27: 56
    Color range : Limited
    Color primaries : BT.709
    Transfer characteristics : BT.709
    Matrix coefficients : BT.709
    Audio
    ID : 2
    Format : AAC
    Format/Info : Advanced Audio Codec
    Format profile : LC
    Codec ID : 40
    Duration : 50mn 48s
    Source duration : 50mn 48s
    Bit rate mode : Variable
    Bit rate : 192 Kbps
    Maximum bit rate : 303 Kbps
    Channel(s) : 2 channels
    Channel positions : Front: L R
    Sampling rate : 48.0 KHz
    Frame rate : 46.875 fps (1024 spf)
    Compression mode : Lossy
    Stream size : 68.8 MiB (6%)
    Source stream size : 68.8 MiB (6%)
    Language : English
    Encoded date : UTC 2017-01-27 07: 27: 56
    Tagged date : UTC 2017-01-27 07: 27: 56
    Скриншоты


    Внимание! Раздача ведётся путём добавления новых серий.

    color=brown
    Внимание! Раздача ведётся путём добавления новых серий; при каждом добавлении создётся новый торрент. Чтобы начать докачку новой серии, пользователям необходимо сделать следующее:
    Остановить скачивание.
    Удалить старый торрент у себя из клиента (старые серии удалять не надо).
    Скачать новый торрент и запустить его у себя в клиенте вместо старого, при этом указать клиенту путь в старую папку куда и должно происходить скачивание новых серий.
    Ваш клиент при этом должен произвести хеширование (проверку) старой папки (если не производит сам - помогите ему сделать это), и будет докачивать только те серии которых у вас ещё нет. Старые серии при этом не удаляются, а продолжают раздаваться!
    Eсли вы уже удалили старые серии, то предотвратить повторную закачку старых серий можно, отжав галочку в соответсвующих местах при запуске нового торрента. По возможности, желательно не удалять старые серии как можно дольше чтобы релизёр не столько продолжал раздавать старые серии, а смог сконцентрироваться на новых.

    Релиз подготовил: OmskBird
    Залил: skyn s61
    Размер скачиваемого торрента: 4.14 GB (4445860886 Bytes)

    Путь/The Path (2016) WEBRip 720p | OmskBird
    загрузка...
    Рейтинг →
     (голосов: 1, оценка 3/5, голосовать можно 1 раз )

    Другие торренты по теме:

  • Неизбежный путь / Inevitable Path (2013) PC | Лицензия
  • Паноптикум: Путь отражений / Panopticon: Path of Reflections (2014) PC скачать через торрент бесплатно
  • Путь / The Path (2016) WEBRip | OMSKBIRD records
  • Путь / The Path (2016) WEBRip 720p | OMSKBIRD records
  • Путь / The Path (2016) WEBRip | Sunshine Studio
  • Путь / The Path (2016) WEBRip | IdeaFilm
  • Путь / The Path (2016) WEBRip 720p | Jaskier
  • Путь / The Path (2016) WEB-DLRip | LostFilm


    • Комментарии (0):

      Информация

      Информация

        Посетители, находящиеся в группе Гости, не могут оставлять комментарии в данной новости.

        ↓ Меню



        ↓ Опрос

        А Вы добавили сайт в закладки?
        Да
        Не


        Top 10 за месяц (Фильмы)