.
Авторизация | Регистрация
Хочешь лучшие торренты? Добавь свой email!
Добавить
» » Серебристая пыль (1953) DVDRip от New-Team скачать торрент бесплатно




    Серебристая пыль (1953) DVDRip от New-Team скачать торрент бесплатно

    Опубликовал: Админ | Дата: 11-02-2017, 11:01 | Просмотров: 0



    Снималось в: СССР
    Создали в: Мосфильм
    Категория жанра: драма, комедия
    Создали в: 19 октября 1953
    Время просмотра: 01: 37: 59
    Перевод текста: Не требуется
    Субтитры подготовлены: нет
    Оригинальная аудиодорожка: русский
    Главный режиссер: Абрам Роом

    Актеры

    Михаил Болдуман, Софья Пилявская, Валентина Ушакова, Николай Тимофеев, Всеволод Ларионов, Владимир Белокуров, Ростислав Плятт, Григорий Кириллов, Александр Ханов, Валерий Лекарев, Геннадий Юдин, Зана Занони, Д. Колмогоров, Александр Пелевин, Лидия Смирнова, Осип Абдулов...
    Полный список актёров
    Описание:
    Экранизация пьесы А.Якобсона Шакалы.
    Американский ученый профессор Стил изобретает мощное оружие массового уничтожения - радиоактивную серебристо-серую пыль. Вокруг этого избретения разгорается ожесточенная борьба двух военно-промышленных трестов-гигантов, одна из которых подкупает гангстеров - и те убивают Стила, назначившего непомерно высокую цену за свое изобретение. Его старший сын Гарри придает гласности чудовищное изобретение отца, а младший сын, член фашистской партии, становится первой жертвой смертоносного действия серебристой пыли.



    Источник: DVD5 R5
    Качество фильма видео: DVDRip
    Тип видео видео: AVI
    Информация о видео: 576x432 (4: 3), 25 fps, XviD ~ 924 kbps avg, 0.149 bit/pixel
    Информация о звуке: 48 kHz, MP3 2.0, 128 kbps
    Раздача от:
    MediaInfo

    Общее
    Полное имя : Serebristaya.pyl.1953.DVDRip-745_New-team_by_AVP_Studio.avi
    Формат : AVI
    Формат/Информация : Audio Video Interleave
    Размер файла : 744 Мбайт
    Продолжительность : 1 ч. 37 м.
    Общий поток : 1062 Кбит/сек
    Программа кодирования : VirtualDubMod 1.5.10.3 | www.virtualdub-fr.org || (build 2550/release)
    Библиотека кодирования : VirtualDubMod build 2550/release
    Видео
    Идентификатор : 0
    Формат : MPEG-4 Visual
    Профиль формата : Advanced Simple@L5
    Параметр BVOP формата : 1
    Параметр QPel формата : Нет
    Параметр GMC формата : Без точки перехода
    Параметр матрицы формата : Выборочная
    Идентификатор кодека : XVID
    Идентификатор кодека/Подсказка : XviD
    Продолжительность : 1 ч. 37 м.
    Битрейт : 924 Кбит/сек
    Ширина : 576 пикселей
    Высота : 432 пикселя
    Соотношение сторон : 4: 3
    Частота кадров : 25, 000 кадров/сек
    Цветовое пространство : YUV
    Субдискретизация насыщенности : 4: 2: 0
    Битовая глубина : 8 бит
    Тип развёртки : Прогрессивная
    Метод сжатия : С потерями
    Бит/(Пиксели*Кадры) : 0.149
    Размер потока : 648 Мбайт (87%)
    Библиотека кодирования : XviD 1.2.1 (UTC 2008-12-04)
    Аудио
    Идентификатор : 1
    Формат : MPEG Audio
    Версия формата : Version 1
    Профиль формата : Layer 3
    Идентификатор кодека : 55
    Идентификатор кодека/Подсказка : MP3
    Продолжительность : 1 ч. 37 м.
    Вид битрейта : Постоянный
    Битрейт : 128 Кбит/сек
    Каналы : 2 канала
    Частота : 48, 0 КГц
    Метод сжатия : С потерями
    Размер потока : 89, 7 Мбайт (12%)
    Выравнивание : Соединение по промежуткам
    Продолжительность промежутка : 40 мс. (1, 00 видеокадр)
    Время предзагрузки промежутка : 504 мс.
    Библиотека кодирования : LAME3.99r
    Залил: AVPStudio

    Онлайн видео Серебристая пыль (1953) DVDRip от New


    Размер скачиваемого торрента: 744.40 MB (780558336 Bytes)


    Серебристая пыль (1953) DVDRip от New-Team
    загрузка...
    Рейтинг →
     (голосов: 1, оценка 3/5, голосовать можно 1 раз )

    Другие торренты по теме:



      Комментарии (0):

      Информация

      Информация

        Посетители, находящиеся в группе Гости, не могут оставлять комментарии в данной новости.

        ↓ Меню



        ↓ Опрос

        А Вы добавили сайт в закладки?
        Да
        Не


        Top 10 за месяц (Фильмы)