.
Авторизация | Регистрация
Хочешь лучшие торренты? Добавь свой email!
Добавить
» » Божественное рождение 2 / Nativity 2: Danger in the Manger! (2012) WEB-DL 1080p | P скачать торрент бесплатно




    Божественное рождение 2 / Nativity 2: Danger in the Manger! (2012) WEB-DL 1080p | P скачать торрент бесплатно

    Опубликовал: Админ | Дата: 11-02-2017, 11:01 | Просмотров: 0



    Детально о кино
    Русское название: Божественное рождение 2/Божественное рождение. Опасность в яслях!
    Русское название в мировом прокате: Nativity 2: Danger in the Manger!
    Создали в: 2012
    Категория жанра: комедия, семейный
    Главный режиссер: Дэбби Иситт

    Актеры
    Дэвид Теннант, Марк Вуттон, Джейсон Уоткинс, Джоанна Пейдж, Иэн МакНис, Джессика Хайнс, Пэм Феррис, Рози Кавальеро, Джейк Роллинз, Оливия Романелло

    Сюжет фильма

    События развернутся вокруг рождественских соревнований между двумя школами. Должен решиться вопрос — у кого в этом году представление лучше? На конкурс всеми силами пытается попасть и хор школы Св. Бернадетт во главе со слегка двинутым классруком мистером Поппи и новым учителем мистером Питерсоном, который явно не разделяет всеобщего энтузиазма.

    Создали в: Великобритания/Media Pro Six, Mirrorball Films, Moviehouse Entertainment
    Время просмотра: 01: 49: 30
    Перевод текста: профессиональный (многоголосый закадровый) Игмар
    Файл
    Качество фильма: WEB-DL 1080p
    Тип видео: MKV
    Информация о видео: MPEG-4 AVC, 1912x1072 (16: 9), 24.000 fps, 5025 kbps, 0.102 bit/pixel
    Информация о звуке #1: русский, AC3 2.0, 48 kHz, 192 kbps
    Информация о звуке #2: английский, AC3 5.1, 48 kHz, 384 kbps
    Субтитры: русские korolami, agent_triny, yuliasha , английские вшитые отключаемые
    MediaInfo
    Формат : Matroska
    Версия формата : Version 4/Version 2
    Размер файла : 4, 37 Гбайт
    Продолжительность : 1 ч. 49 м.
    Общий поток : 5715 Кбит/сек
    Дата кодирования : UTC 2017-02-07 15: 07: 12
    Программа кодирования : mkvmerge v7.9.0 (;Birds;) 64bit
    Библиотека кодирования : libebml v1.3.1 + libmatroska v1.4.2
    Видео
    Идентификатор : 1
    Формат : AVC
    Формат/Информация : Advanced Video Codec
    Профиль формата : High@L4
    Параметр CABAC формата : Да
    Параметр ReFrames формата : 4 кадра
    Идентификатор кодека : V_MPEG4/ISO/AVC
    Продолжительность : 1 ч. 49 м.
    Битрейт : 5025 Кбит/сек
    Ширина : 1912 пикселей
    Высота : 1072 пикселя
    Соотношение сторон : 16: 9
    Режим частоты кадров : Постоянный
    Частота кадров : 24, 000 кадра/сек
    Цветовое пространство : YUV
    Субдискретизация насыщенности : 4: 2: 0
    Битовая глубина : 8 бит
    Тип развёртки : Прогрессивная
    Бит/(Пиксели*Кадры) : 0.102
    Размер потока : 3, 84 Гбайт (88%)
    Язык : English
    Default : Да
    Forced : Нет
    Цветовой диапазон : Limited
    Основные цвета : BT.709
    Характеристики трансфера : BT.709
    Коэффициенты матрицы : BT.709
    Аудио #1
    Идентификатор : 2
    Формат : AC-3
    Формат/Информация : Audio Coding 3
    Расширение режима : CM (complete main)
    Параметр Endianness формата : Big
    Идентификатор кодека : A_AC3
    Продолжительность : 1 ч. 49 м.
    Вид битрейта : Постоянный
    Битрейт : 192 Кбит/сек
    Каналы : 2 канала
    Расположение каналов : Front: L R
    Частота : 48, 0 КГц
    Метод сжатия : С потерями
    Размер потока : 150 Мбайт (3%)
    Язык : Russian
    Default : Да
    Forced : Нет
    Аудио #2
    Идентификатор : 3
    Формат : AC-3
    Формат/Информация : Audio Coding 3
    Расширение режима : CM (complete main)
    Параметр Endianness формата : Big
    Идентификатор кодека : A_AC3
    Продолжительность : 1 ч. 49 м.
    Вид битрейта : Постоянный
    Битрейт : 384 Кбит/сек
    Каналы : 6 каналов
    Расположение каналов : Front: L C R, Side: L R, LFE
    Частота : 48, 0 КГц
    Метод сжатия : С потерями
    Размер потока : 301 Мбайт (7%)
    Язык : English
    Default : Нет
    Forced : Нет
    Текст #1
    Идентификатор : 4
    Формат : UTF-8
    Идентификатор кодека : S_TEXT/UTF8
    Идентификатор кодека/Информация : UTF-8 Plain Text
    Язык : Russian
    Default : Да
    Forced : Нет
    Текст #2
    Идентификатор : 5
    Формат : UTF-8
    Идентификатор кодека : S_TEXT/UTF8
    Идентификатор кодека/Информация : UTF-8 Plain Text
    Язык : English
    Default : Нет
    Forced : Нет
    Меню
    00: 00: 00.000 : en: 1
    00: 10: 04.000 : en: 2
    00: 20: 05.000 : en: 3
    00: 30: 05.000 : en: 4
    00: 40: 02.000 : en: 5
    00: 50: 00.000 : en: 6
    01: 00: 01.000 : en: 7
    01: 10: 04.000 : en: 8
    01: 20: 07.000 : en: 9
    01: 30: 02.000 : en: 10
    01: 40: 05.000 : en: 11
    Скриншоты

    Залил: makkaronni

    Онлайн видео Божественное рождение 2


    Размер скачиваемого торрента: 4.37 GB (4693106522 Bytes)

    Божественное рождение 2/Nativity 2: Danger in the Manger! (2012) WEB-DL 1080p | P
    загрузка...
    Рейтинг →
     (голосов: 1, оценка 4/5, голосовать можно 1 раз )

    Другие торренты по теме:

  • Божественное создание / Прекрасная нимфа / Divina Creatura (1976) DVDRip
  • Божественное оружие / The Divine Weapon / Shin ge jeon (2008) BDRip 1080p by msltel | P, L1 скачать через торрент бесплатно
  • Божественное / Divine the series (2011) WEBRip | L1
  • Монтевидео: Божественное видение / Montevideo, Bog te video! (2010) BDRip 720p от CINEMANIA | L1 скачать через торрент бесплатно
  • Монтевидео: Божественное видение / Montevideo, Bog te video! (2010) BDRip | L1


    • Комментарии (0):

      Информация

      Информация

        Посетители, находящиеся в группе Гости, не могут оставлять комментарии в данной новости.

        ↓ Меню



        ↓ Опрос

        А Вы добавили сайт в закладки?
        Да
        Не


        Top 10 за месяц (Фильмы)