.
Авторизация | Регистрация
Хочешь лучшие торренты? Добавь свой email!
Добавить




Дом / Hausu (1977) BDRemux 1080р | L1 скачать торрент бесплатно

Опубликовал: Админ | Дата: 11-02-2017, 11:00 | Просмотров: 0



Детально о кино
Русское название: Дом
Русское название в мировом прокате: Hausu
Создали в: 1977
Категория жанра: ужасы, фэнтези, комедия, сюрреализм
Главный режиссер: Нобухико Обаяси

Актеры
Кимико Икегами, Кумико Охба, Ёко Минамида, Аи Матсубара, Эрико Танака, Таками Асано, Фуми Дэн

Сюжет фильма
Семеро школьниц отправляются навестить бабушку в её большой и мрачный дом. Но они и не подозревают, что Дом — это демон, пожирающий девственниц.

Снималось в: Япония
Время просмотра: 01: 27: 58
Перевод текста: Любительский (одноголосый закадровый) М. Бирюков
Субтитры подготовлены: русские (Прохор666), английские
Оригинальная аудиодорожка: японский
Файл
Кодек для видео: MPEG4
Качество фильма: BDRemux 1080р
Информация о видео: 1920x1080/16: 9/23.976fps/35017Kbps/High@L4.1
Информация о звуке 1: AC3/48.0 KHz/1ch./192kbps/Rus/VO/М. Бирюков
Информация о звуке 2: DTS-HD MA/48.0 KHz/1ch/1048kbps/24bit (DTS Core 48.0 KHz/1ch/768kbps/24bit) Jap
Скриншоты

MediaInfo
Общее
Уникальный идентификатор : 236262929694515449349372219896172779151 (0xB1BE95C96C7A337B856C5432BEAA168F)
Полное имя : D: _TorrentHD1House.1977.BDRemux.1080p_by_vedigo.mkv
Формат : Matroska
Версия формата : Version 4/Version 2
Размер файла : 22, 3 Гбайт
Продолжительность : 1 ч. 27 м.
Режим общего битрейта : Переменный
Общий поток : 36, 2 Мбит/сек
Название фильма : House.1977.BDRemux.1080p_by_vedigo
Дата кодирования : UTC 2017-02-03 07: 42: 26
Программа кодирования : mkvmerge v9.8.0 (;Kuglblids;) 64bit
Библиотека кодирования : libebml v1.3.4 + libmatroska v1.4.5
Видео
Идентификатор : 1
Формат : AVC
Формат/Информация : Advanced Video Codec
Профиль формата : High@L4.1
Параметр CABAC формата : Да
Параметр ReFrames формата : 4 кадра
Идентификатор кодека : V_MPEG4/ISO/AVC
Продолжительность : 1 ч. 27 м.
Вид битрейта : Переменный
Битрейт : 35, 0 Мбит/сек
Максимальный битрейт : 37, 0 Мбит/сек
Ширина : 1920 пикселей
Высота : 1080 пикселей
Соотношение сторон : 16: 9
Режим частоты кадров : Постоянный
Частота кадров : 23, 976 (24000/1001) кадра/сек
Цветовое пространство : YUV
Субдискретизация насыщенности : 4: 2: 0
Битовая глубина : 8 бит
Тип развёртки : Прогрессивная
Бит/(Пиксели*Кадры) : 0.704
Размер потока : 21, 5 Гбайт (97%)
Заголовок : House.1977.BDRemux.1080p_by_vedigo
Default : Да
Forced : Нет
Цветовой диапазон : Limited
Основные цвета : BT.709
Характеристики трансфера : BT.709
Коэффициенты матрицы : BT.709
Аудио #1
Идентификатор : 2
Формат : AC-3
Формат/Информация : Audio Coding 3
Расширение режима : CM (complete main)
Параметр Endianness формата : Big
Идентификатор кодека : A_AC3
Продолжительность : 1 ч. 27 м.
Вид битрейта : Постоянный
Битрейт : 192 Кбит/сек
Каналы : 1 канал
Расположение каналов : Front: C
Частота : 48, 0 КГц
Частота кадров : 31, 250 кадров/сек (1536 spf)
Метод сжатия : С потерями
Размер потока : 121 Мбайт (1%)
Заголовок : VO @ М. Бирюков
Язык : Russian
Default : Да
Forced : Нет
Аудио #2
Идентификатор : 3
Формат : DTS
Формат/Информация : Digital Theater Systems
Профиль формата : MA/Core
Режим : 16
Параметр Endianness формата : Big
Идентификатор кодека : A_DTS
Продолжительность : 1 ч. 27 м.
Вид битрейта : Переменный/Постоянный
Битрейт : 1048 Кбит/сек/768 Кбит/сек
Каналы : 1 канал
Расположение каналов : Front: C
Частота : 48, 0 КГц
Частота кадров : 93, 750 кадра/сек (512 spf)
Битовая глубина : 24 бит
Метод сжатия : Без потерь/Lossy
Размер потока : 659 Мбайт (3%)
Заголовок : Original
Язык : Japanese
Default : Нет
Forced : Нет
Текст #1
Идентификатор : 4
Формат : UTF-8
Идентификатор кодека : S_TEXT/UTF8
Идентификатор кодека/Информация : UTF-8 Plain Text
Продолжительность : 1 ч. 27 м.
Битрейт : 55 бит/сек
Count of elements : 804
Размер потока : 35, 3 Кбайт (0%)
Заголовок : Subtitle rus @ Прохор666
Язык : Russian
Default : Нет
Forced : Нет
Текст #2
Идентификатор : 5
Формат : UTF-8
Идентификатор кодека : S_TEXT/UTF8
Идентификатор кодека/Информация : UTF-8 Plain Text
Продолжительность : 1 ч. 27 м.
Битрейт : 35 бит/сек
Count of elements : 944
Размер потока : 22, 9 Кбайт (0%)
Заголовок : Subtitle eng
Язык : English
Default : Нет
Forced : Нет
Меню
00: 00: 00.000 : en: 00: 00: 00.000
00: 00: 58.350 : en: 00: 00: 58.350
00: 03: 43.390 : en: 00: 03: 43.390
00: 06: 48.742 : en: 00: 06: 48.742
00: 08: 54.075 : en: 00: 08: 54.075
00: 11: 15.633 : en: 00: 11: 15.633
00: 14: 15.438 : en: 00: 14: 15.438
00: 17: 39.767 : en: 00: 17: 39.767
00: 19: 58.114 : en: 00: 19: 58.114
00: 22: 56.667 : en: 00: 22: 56.667
00: 25: 40.205 : en: 00: 25: 40.205
00: 29: 53.917 : en: 00: 29: 53.917
00: 32: 23.316 : en: 00: 32: 23.316
00: 37: 17.986 : en: 00: 37: 17.986
00: 41: 24.357 : en: 00: 41: 24.357
00: 43: 24.769 : en: 00: 43: 24.769
00: 48: 41.085 : en: 00: 48: 41.085
00: 50: 50.214 : en: 00: 50: 50.214
00: 54: 29.933 : en: 00: 54: 29.933
01: 00: 45.725 : en: 01: 00: 45.725
01: 04: 31.493 : en: 01: 04: 31.493
01: 08: 24.142 : en: 01: 08: 24.142
01: 11: 00.047 : en: 01: 11: 00.047
01: 14: 27.088 : en: 01: 14: 27.088
01: 19: 35.354 : en: 01: 19: 35.354
01: 26: 15.545 : en: 01: 26: 15.545

Размер скачиваемого торрента: 22.27 GB (23908794532 Bytes)

Дом/Hausu (1977) BDRemux 1080р | L1
загрузка...
Рейтинг →
 (голосов: 1, оценка 5/5, голосовать можно 1 раз )

Другие торренты по теме:



    Комментарии (0):

    Информация

    Информация

      Посетители, находящиеся в группе Гости, не могут оставлять комментарии в данной новости.

      ↓ Меню



      ↓ Опрос

      А Вы добавили сайт в закладки?
      Да
      Не


      Top 10 за месяц (Фильмы)