.
Авторизация | Регистрация
Хочешь лучшие торренты? Добавь свой email!
Добавить
» » Рожденный убивать / Koroshi no rakuin (1967) BDRemux 1080p | L1 скачать торрент бесплатно




    Рожденный убивать / Koroshi no rakuin (1967) BDRemux 1080p | L1 скачать торрент бесплатно

    Опубликовал: Админ | Дата: 11-02-2017, 11:00 | Просмотров: 0



    Детально о кино
    Русское название: Рожденный убивать
    Русское название в мировом прокате: Koroshi no rakuin
    Создали в: 1967
    Категория жанра: боевик, драма, криминал
    Главный режиссер: Сэйдзюн Судзуки

    Актеры
    Джо Шишидо, Кодзи Намбара, Исао Тамагава, Энн Мари, Марико Огава, Хироши Минами, Иваэ Арай, Хироши Чо, Франц Грубер

    Сюжет фильма

    Ханада — киллер №3 в Японии, и это место его вполне устраивает. У него немало денег, фешенебельная квартира, красивая жена и страсть к запаху свежесваренного риса. Но происходит с киллером обман-дурман в виде девушки, похожей на индианку…

    Снималось в: Япония
    Время просмотра: 01: 31: 20
    Перевод текста: Любительский одноголосый
    Файл
    Кодек для видео: AVC
    Качество фильма: BDRemux 1080p
    Информация о видео: 34957 Кбит/с, 1920x1080, 23.976 кадр/с
    Информация о звуке:
    Информация о звуке 1: AC3/48.0 KHz/2ch./192kbps - Rus
    Информация о звуке 2: DTS-HD MA/48.0 KHz/1ch/1024kbps/24bit (DTS Core 48.0 KHz/1ch/768kbps/24bit) - Jap
    Субтитры подготовлены: русские, английские
    MediaInfo
    Общее
    Уникальный идентификатор : 221410624449000176034428960840349404339 (0xA692229A0DE054CB901CAA24C0DC4CB3)
    Полное имя : G: !!!_torrentBranded.to.Kill.1967.BDRemux.1080p_by_vedigo.mkv
    Формат : Matroska
    Версия формата : Version 4/Version 2
    Размер файла : 23, 0 Гбайт
    Продолжительность : 1 ч. 31 м.
    Режим общего битрейта : Переменный
    Общий поток : 36, 0 Мбит/сек
    Название фильма : Branded.to.Kill.1967.BDRemux.1080p_by_vedigo
    Дата кодирования : UTC 2017-01-30 07: 08: 27
    Программа кодирования : mkvmerge v9.8.0 (;Kuglblids;) 64bit
    Библиотека кодирования : libebml v1.3.4 + libmatroska v1.4.5
    Видео
    Идентификатор : 1
    Формат : AVC
    Формат/Информация : Advanced Video Codec
    Профиль формата : High@L4.1
    Параметр CABAC формата : Да
    Параметр ReFrames формата : 4 кадра
    Идентификатор кодека : V_MPEG4/ISO/AVC
    Продолжительность : 1 ч. 31 м.
    Вид битрейта : Переменный
    Битрейт : 34, 8 Мбит/сек
    Максимальный битрейт : 37, 0 Мбит/сек
    Ширина : 1920 пикселей
    Высота : 1080 пикселей
    Соотношение сторон : 16: 9
    Режим частоты кадров : Постоянный
    Частота кадров : 23, 976 (24000/1001) кадра/сек
    Цветовое пространство : YUV
    Субдискретизация насыщенности : 4: 2: 0
    Битовая глубина : 8 бит
    Тип развёртки : Прогрессивная
    Бит/(Пиксели*Кадры) : 0.700
    Размер потока : 22, 2 Гбайт (97%)
    Заголовок : Branded.to.Kill.1967.BDRemux.1080p_by_vedigo
    Default : Да
    Forced : Нет
    Аудио #1
    Идентификатор : 2
    Формат : AC-3
    Формат/Информация : Audio Coding 3
    Расширение режима : CM (complete main)
    Параметр Endianness формата : Big
    Идентификатор кодека : A_AC3
    Продолжительность : 1 ч. 31 м.
    Вид битрейта : Постоянный
    Битрейт : 192 Кбит/сек
    Каналы : 2 канала
    Расположение каналов : Front: L R
    Частота : 48, 0 КГц
    Частота кадров : 31, 250 кадров/сек (1536 spf)
    Битовая глубина : 16 бит
    Метод сжатия : С потерями
    Размер потока : 125 Мбайт (1%)
    Заголовок : VO
    Default : Да
    Forced : Нет
    Аудио #2
    Идентификатор : 3
    Формат : DTS
    Формат/Информация : Digital Theater Systems
    Профиль формата : MA/Core
    Режим : 16
    Параметр Endianness формата : Big
    Идентификатор кодека : A_DTS
    Продолжительность : 1 ч. 31 м.
    Вид битрейта : Переменный/Постоянный
    Битрейт : 1024 Кбит/сек/768 Кбит/сек
    Каналы : 1 канал
    Расположение каналов : Front: C
    Частота : 48, 0 КГц
    Частота кадров : 93, 750 кадра/сек (512 spf)
    Битовая глубина : 24 бит
    Метод сжатия : Без потерь/Lossy
    Размер потока : 669 Мбайт (3%)
    Заголовок : Original
    Язык : Japanese
    Default : Нет
    Forced : Нет
    Текст #1
    Идентификатор : 4
    Формат : UTF-8
    Идентификатор кодека : S_TEXT/UTF8
    Идентификатор кодека/Информация : UTF-8 Plain Text
    Продолжительность : 1 ч. 30 м.
    Битрейт : 30 бит/сек
    Count of elements : 365
    Размер потока : 20, 1 Кбайт (0%)
    Заголовок : Subtitle rus
    Язык : Russian
    Default : Нет
    Forced : Нет
    Текст #2
    Идентификатор : 5
    Формат : UTF-8
    Идентификатор кодека : S_TEXT/UTF8
    Идентификатор кодека/Информация : UTF-8 Plain Text
    Продолжительность : 1 ч. 30 м.
    Битрейт : 19 бит/сек
    Count of elements : 494
    Размер потока : 12, 9 Кбайт (0%)
    Заголовок : Subtitle eng
    Язык : English
    Default : Нет
    Forced : Нет
    Меню
    00: 00: 00.000 : en: 00: 00: 00.000
    00: 10: 11.152 : en: 00: 10: 11.152
    00: 19: 11.025 : en: 00: 19: 11.025
    00: 25: 34.992 : en: 00: 25: 34.992
    00: 29: 32.896 : en: 00: 29: 32.896
    00: 35: 07.105 : en: 00: 35: 07.105
    00: 43: 45.373 : en: 00: 43: 45.373
    00: 52: 57.257 : en: 00: 52: 57.257
    00: 57: 35.452 : en: 00: 57: 35.452
    01: 03: 23.550 : en: 01: 03: 23.550
    01: 06: 17.307 : en: 01: 06: 17.307
    01: 09: 23.826 : en: 01: 09: 23.826
    01: 11: 51.307 : en: 01: 11: 51.307
    01: 17: 16.131 : en: 01: 17: 16.131
    01: 23: 21.705 : en: 01: 23: 21.705
    Скриншоты


    Онлайн видео Рожденный убивать


    Размер скачиваемого торрента: 22.98 GB (24678476750 Bytes)

    Рожденный убивать/Koroshi no rakuin (1967) BDRemux 1080p | L1
    загрузка...
    Рейтинг →
     (голосов: 1, оценка 5/5, голосовать можно 1 раз )

    Другие торренты по теме:

  • Рожденный убивать / Born to Kill (1947) DVDRip от egoleshik | P скачать через торрент бесплатно
  • Рожденный убивать / Born to Kill (2017) HDTVRip | L2
  • Рожденный убивать / Born to Kill (2017) HDTVRip | L2
  • Рожденный убивать / Born to Kill (2017) HDTVRip | Jaskier


    • Комментарии (0):

      Информация

      Информация

        Посетители, находящиеся в группе Гости, не могут оставлять комментарии в данной новости.

        ↓ Меню



        ↓ Опрос

        А Вы добавили сайт в закладки?
        Да
        Не


        Top 10 за месяц (Фильмы)