.
Авторизация | Регистрация
Хочешь лучшие торренты? Добавь свой email!
Добавить
» » Легионеры / Иди вперед или умри / March or Die (1977) BDRip 720p | P, P2 скачать торрент бесплатно




    Легионеры / Иди вперед или умри / March or Die (1977) BDRip 720p | P, P2 скачать торрент бесплатно

    Опубликовал: Админ | Дата: 11-02-2017, 11:00 | Просмотров: 0



    Детально о кино
    Русское название: Легионеры/Иди вперед или умри
    Русское название в мировом прокате: March or Die
    Создали в: 1977
    Категория жанра: драма, мелодрама, приключения, военный
    Главный режиссер: Дик Ричардс

    Актеры
    Джин Хэкмен, Теренс Хилл, Катрин Денёв, Макс фон Сюдов, Иэн Холм, Джек О’Хэллоран, Рюфюс, Марсель Боззюффи, Андре Пенверн, Пол Шерман

    Сюжет фильма

    Подразделение Французского Иностранного легиона получает приказ охранять археологическую экспедицию, которая отправляется в Марокканскую пустыню продолжить поиски бесценной арабской гробницы.
    Первая экспедиция была уничтожена кочевниками. Вождь кочевников Эль Крим считает, что гробница должна принадлежать его племени, как символ свободы, и готов насмерть сражаться с легионерами за обладание древней святыней.

    Снималось в: Великобритания
    Киностудия: Associated General Films, Sir Lew Grade
    Время просмотра: 01: 42: 22
    Перевод текста: Профессиональный (многоголосый, закадровый) + Профессиональный (двухголосый, закадровый) Екатеринбург Арт
    Файл
    Тип видео: Matroska
    Информация о видео: 1280x718 at 25.000 fps, x264@L4.1, ~6900 kbps avg
    Информация о звуке#1: Russian: 48 kHz, AC3, 2/0 (L, R) ch, ~192 kbps avg |Многоголосый закадровый|
    Информация о звуке#2: Russian: 48 kHz, AC3, 2/0 (L, R) ch, ~192 kbps avg |Двухголосый закадровый, Екатеринбург Арт|
    Информация о звуке#3: English: 48 kHz, AC3, 2/0 (L, R) ch, ~256 kbps avg
    Субтитры: None
    MI
    Общее
    Уникальный идентификатор : 248723308082907507102855505774549410386 (0xBB1E5DDF6BEAD9E99050E46B77082252)
    Полное имя : Легионеры.1977.BDRip.720p.mkv
    Формат : Matroska
    Версия формата : Version 4/Version 2
    Размер файла : 5, 51 Гбайт
    Продолжительность : 1 ч. 42 м.
    Общий поток : 7701 Кбит/сек
    Дата кодирования : UTC 2016-10-15 03: 10: 30
    Программа кодирования : mkvmerge v8.2.0 (;World of Adventure;) 64bit
    Библиотека кодирования : libebml v1.3.1 + libmatroska v1.4.2
    Видео
    Идентификатор : 1
    Формат : AVC
    Формат/Информация : Advanced Video Codec
    Профиль формата : High@L4.1
    Параметр CABAC формата : Да
    Параметр ReFrames формата : 9 кадров
    Идентификатор кодека : V_MPEG4/ISO/AVC
    Продолжительность : 1 ч. 42 м.
    Битрейт : 6908 Кбит/сек
    Ширина : 1280 пикселей
    Высота : 718 пикселей
    Соотношение сторон : 16: 9
    Режим частоты кадров : Постоянный
    Частота кадров : 25, 000 кадров/сек
    Цветовое пространство : YUV
    Субдискретизация насыщенности : 4: 2: 0
    Битовая глубина : 8 бит
    Тип развёртки : Прогрессивная
    Бит/(Пиксели*Кадры) : 0.301
    Размер потока : 4, 94 Гбайт (90%)
    Библиотека кодирования : x264 core 146 r2538 121396c
    Настройки программы : cabac=1/ref=9/deblock=1: -3: -3/analyse=0x3: 0x113/me=umh/subme=10/psy=1/psy_rd=1.00: 0.15/mixed_ref=1/me_range=32/chroma_me=1/trellis=2/8x8dct=1/cqm=0/deadzone=21, 11/fast_pskip=1/chroma_qp_offset=-3/threads=6/lookahead_threads=1/sliced_threads=0/nr=0/decimate=1/interlaced=0/bluray_compat=0/constrained_intra=0/bframes=16/b_pyramid=2/b_adapt=2/b_bias=0/direct=1/weightb=1/open_gop=0/weightp=2/keyint=250/keyint_min=25/scenecut=40/intra_refresh=0/rc_lookahead=40/rc=crf/mbtree=0/crf=18.0/qcomp=0.60/qpmin=0/qpmax=69/qpstep=4/vbv_maxrate=40000/vbv_bufsize=50000/crf_max=0.0/nal_hrd=none/filler=0/ip_ratio=1.40/pb_ratio=1.30/aq=1: 1.00
    Язык : English
    Default : Да
    Forced : Нет
    Аудио #1
    Идентификатор : 2
    Формат : AC-3
    Формат/Информация : Audio Coding 3
    Расширение режима : CM (complete main)
    Параметр Endianness формата : Big
    Идентификатор кодека : A_AC3
    Продолжительность : 1 ч. 42 м.
    Вид битрейта : Постоянный
    Битрейт : 192 Кбит/сек
    Каналы : 2 канала
    Расположение каналов : Front: L R
    Частота : 48, 0 КГц
    Битовая глубина : 16 бит
    Метод сжатия : С потерями
    Размер потока : 141 Мбайт (2%)
    Заголовок : MVO
    Язык : Russian
    Default : Да
    Forced : Нет
    Аудио #2
    Идентификатор : 3
    Формат : AC-3
    Формат/Информация : Audio Coding 3
    Расширение режима : CM (complete main)
    Параметр Endianness формата : Big
    Идентификатор кодека : A_AC3
    Продолжительность : 1 ч. 42 м.
    Вид битрейта : Постоянный
    Битрейт : 192 Кбит/сек
    Каналы : 2 канала
    Расположение каналов : Front: L R
    Частота : 48, 0 КГц
    Битовая глубина : 16 бит
    Метод сжатия : С потерями
    Размер потока : 141 Мбайт (2%)
    Заголовок : DVO (Екатеринбург Арт)
    Язык : Russian
    Default : Нет
    Forced : Нет
    Аудио #3
    Идентификатор : 4
    Формат : AC-3
    Формат/Информация : Audio Coding 3
    Расширение режима : CM (complete main)
    Параметр Endianness формата : Big
    Идентификатор кодека : A_AC3
    Продолжительность : 1 ч. 42 м.
    Вид битрейта : Постоянный
    Битрейт : 256 Кбит/сек
    Каналы : 2 канала
    Расположение каналов : Front: L R
    Частота : 48, 0 КГц
    Битовая глубина : 16 бит
    Метод сжатия : С потерями
    Размер потока : 187 Мбайт (3%)
    Заголовок : original
    Язык : English
    Default : Нет
    Forced : Нет
    Скриншоты


    Онлайн видео Легионеры


    Размер скачиваемого торрента: 5.51 GB (5912812373 Bytes)

    Легионеры/Иди вперед или умри/March or Die (1977) BDRip 720p | P, P2
    загрузка...
    Рейтинг →
     (голосов: 1, оценка 5/5, голосовать можно 1 раз )

    Другие торренты по теме:



      Комментарии (0):

      Информация

      Информация

        Посетители, находящиеся в группе Гости, не могут оставлять комментарии в данной новости.

        ↓ Меню



        ↓ Опрос

        А Вы добавили сайт в закладки?
        Да
        Не


        Top 10 за месяц (Фильмы)