.
Авторизация | Регистрация
Хочешь лучшие торренты? Добавь свой email!
Добавить
» » Тернер и Хуч / Turner Hooch (1989) BDRip 1080p | Р, А скачать торрент бесплатно




    Тернер и Хуч / Turner Hooch (1989) BDRip 1080p | Р, А скачать торрент бесплатно

    Опубликовал: Админ | Дата: 27-02-2015, 11:09 | Просмотров: 479


    Название: Тернер и Хуч

    The Oddest Couple Ever Unleashed!

    Оригинальное название: Turner and Hooch
    Год выпуска: 1989
    Жанр: Комедия, детектив
    Выпущено: США, Silver Screen Partners IV, Touchstone Pictures
    Продолжительность: 01:39:31
    Перевод: Профессиональный многоголосый, авторский одноголосый
    Субтитры: Русские, английские

    Режиссер: Роджер Споттисвуд

    В ролях: Том Хэнкс, Мэр Уиннингхэм, Крэйг Т. Нельсон, Реджинальд ВелДжонсон, Скотт Полин, Дж. К. Куин, Джон МакИнтайр, Дэвид Нелл, Эбби Роу Смит, Кевин Сканнелл

    О фильме: Профессиональный сыщик Скотт Тернер ненавидит беспорядок. В его жизни все заранее спланировано и предсказуемо. Хуч — самый неспокойный, самый невоспитанный и абсолютно неподдающийся дрессировке пес. Не повезет тому несчастному хозяину, к которому он попадет. Тернер слишком поздно понял, кого впустил в свой дом. Но шумные ссоры ни к чему не привели. Возможно, лучший способ одолеть своего врага, это подружиться с ним.

    Качество: BDRip 1080p
    Видео: MPEG-4 AVC, 10.6 Mбит/с, 1920x1040
    Аудио №1: Русский (AC3, 6 ch, 384 Кбит/с) - Профессиональный многоголосый (НТВ )
    Аудио №2: Русский (AC3, 6 ch, 384 Кбит/с) - Профессиональный многоголосый (СТС)
    Аудио №3: Русский (AC3, 6 ch, 384 Кбит/с) - Профессиональный многоголосый (ОРТ)
    Аудио №4: Русский (AC3, 6 ch, 384 Кбит/с) - Авторский одноголосый (Михалев )
    Аудио №5: Английский (DTS, 6 ch, 1510 Кбит/с)

    MediaInfo
    Format : Matroska
    Format version : Version 4 / Version 2
    File size : 9.23 GiB
    Duration : 1h 39mn
    Overall bit rate : 13.3 Mbps
    Movie name : CMEGRoup
    Encoded date : UTC 2013-04-17 19:08:28
    Writing application : mkvmerge v6.1.0 (;Old Devil;) built on Mar 2 2013 14:32:37
    Writing library : libebml v1.3.0 libmatroska v1.4.0

    Video
    ID : 1
    Format : AVC
    Format/Info : Advanced Video Codec
    Format profile : High@L4.1
    Format settings, CABAC : Yes
    Format settings, ReFrames : 4 frames
    Codec ID : V_MPEG4/ISO/AVC
    Duration : 1h 39mn
    Bit rate : 10.6 Mbps
    Width : 1 920 pixels
    Height : 1 040 pixels
    Display aspect ratio : 1.85:1
    Frame rate : 23.976 fps
    Color space : YUV
    Chroma subsampling : 4:2:0
    Bit depth : 8 bits
    Scan type : Progressive
    Bits/(Pixel*Frame) : 0.221
    Stream size : 7.19 GiB (78%)
    Writing library : x264 core 130 r2273 b3065e6
    Encoding settings : cabac=1 / ref=4 / deblock=1:-3:-3 / analyse=0x3:0x113 / me=umh / subme=10 / psy=1 / psy_rd=1.00:0.00 / mixed_ref=1 / me_range=32 / chroma_me=1 / trellis=2 / 8x8dct=1 / cqm=0 / deadzone=21,11 / fast_pskip=1 / chroma_qp_offset=-2 / threads=6 / lookahead_threads=1 / sliced_threads=0 / nr=0 / decimate=1 / interlaced=0 / bluray_compat=0 / constrained_intra=0 / bframes=5 / b_pyramid=2 / b_adapt=2 / b_bias=0 / direct=2 / weightb=0 / open_gop=0 / weightp=2 / keyint=240 / keyint_min=23 / scenecut=40 / intra_refresh=0 / rc_lookahead=40 / rc=2pass / mbtree=1 / bitrate=10600 / ratetol=1.0 / qcomp=0.60 / qpmin=0 / qpmax=69 / qpstep=4 / cplxblur=20.0 / qblur=0.5 / vbv_maxrate=62500 / vbv_bufsize=78125 / nal_hrd=none / ip_ratio=1.40 / aq=1:1.00
    Language : English
    Default : Yes
    Forced : No

    Audio #1
    ID : 2
    Format : AC-3
    Format/Info : Audio Coding 3
    Mode extension : CM (complete main)
    Format settings, Endianness : Big
    Codec ID : A_AC3
    Duration : 1h 39mn
    Bit rate mode : Constant
    Bit rate : 384 Kbps
    Channel(s) : 6 channels
    Channel positions : Front: L C R, Side: L R, LFE
    Sampling rate : 48.0 KHz
    Bit depth : 16 bits
    Compression mode : Lossy
    Stream size : 274 MiB (3%)
    Title : MVO
    Language : Russian
    Default : Yes
    Forced : No

    Audio #2
    ID : 3
    Format : AC-3
    Format/Info : Audio Coding 3
    Mode extension : CM (complete main)
    Format settings, Endianness : Big
    Codec ID : A_AC3
    Duration : 1h 39mn
    Bit rate mode : Constant
    Bit rate : 384 Kbps
    Channel(s) : 6 channels
    Channel positions : Front: L C R, Side: L R, LFE
    Sampling rate : 48.0 KHz
    Bit depth : 16 bits
    Compression mode : Lossy
    Stream size : 274 MiB (3%)
    Title : AVO
    Language : Russian
    Default : No
    Forced : No

    Audio #3
    ID : 4
    Format : AC-3
    Format/Info : Audio Coding 3
    Mode extension : CM (complete main)
    Format settings, Endianness : Big
    Codec ID : A_AC3
    Duration : 1h 39mn
    Bit rate mode : Constant
    Bit rate : 192 Kbps
    Channel(s) : 2 channels
    Channel positions : Front: L R
    Sampling rate : 48.0 KHz
    Bit depth : 16 bits
    Compression mode : Lossy
    Stream size : 137 MiB (1%)
    Title : MVO
    Language : Russian
    Default : No
    Forced : No

    Audio #4
    ID : 5
    Format : AC-3
    Format/Info : Audio Coding 3
    Mode extension : CM (complete main)
    Format settings, Endianness : Big
    Codec ID : A_AC3
    Duration : 1h 39mn
    Bit rate mode : Constant
    Bit rate : 192 Kbps
    Channel(s) : 2 channels
    Channel positions : Front: L R
    Sampling rate : 48.0 KHz
    Bit depth : 16 bits
    Compression mode : Lossy
    Stream size : 137 MiB (1%)
    Title : MVO
    Language : Russian
    Default : No
    Forced : No

    Audio #5
    ID : 6
    Format : DTS
    Format/Info : Digital Theater Systems
    Codec ID : A_DTS
    Duration : 1h 39mn
    Bit rate mode : Constant
    Bit rate : 1 510 Kbps
    Channel(s) : 6 channels
    Channel positions : Front: L C R, Side: L R, LFE
    Sampling rate : 48.0 KHz
    Bit depth : 24 bits
    Compression mode : Lossy
    Stream size : 1.05 GiB (11%)
    Language : English
    Default : No
    Forced : No

    Text #1
    ID : 7
    Format : UTF-8
    Codec ID : S_TEXT/UTF8
    Codec ID/Info : UTF-8 Plain Text
    Language : English
    Default : Yes
    Forced : No

    Text #2
    ID : 8
    Format : PGS
    Muxing mode : zlib
    Codec ID : S_HDMV/PGS
    Codec ID/Info : The same subtitle format used on BDs/HD-DVDs
    Language : Russian
    Default : No
    Forced : No

    Menu
    00:00:00.000 : en:00:00:00.000
    00:12:27.747 : en:00:12:27.747
    00:17:37.515 : en:00:17:37.515
    00:25:54.845 : en:00:25:54.845
    00:29:11.124 : en:00:29:11.124
    00:36:43.159 : en:00:36:43.159
    00:44:38.092 : en:00:44:38.092
    00:50:24.897 : en:00:50:24.897
    00:59:10.297 : en:00:59:10.297
    01:05:35.890 : en:01:05:35.890
    01:19:01.528 : en:01:19:01.528
    01:30:05.650


    Размер: 9.23 GB (9912162122 Bytes)
    загрузка...
    Рейтинг →
     (голосов: 1, оценка 5/5, голосовать можно 1 раз )

    Другие торренты по теме:

  • Тернер и Хуч / Turner Hooch (1989) BDRip от Rulya74 | D, P скачать через торрент бесплатно
  • Тернер и Хуч / Turner Hooch (1989) BDRip-AVC от 0ptimus | D, P, A
  • Тернер и Хуч / Turner and Hooch / 1989 / ДБ, 3 х ПМ, АП (Дохалов, Живов, Михалев), СТ / BDRip (AVC)
  • Тернер и Хуч / Turner Hooch (1989) HDRip от Scarabey | P
  • Тернер и Хуч / Turner Hooch (1989) BDRip 720p от HDReactor | Р, А


    • Комментарии (0):

      Информация

      Информация

        Посетители, находящиеся в группе Гости, не могут оставлять комментарии в данной новости.

        ↓ Меню



        ↓ Опрос

        А Вы добавили сайт в закладки?
        Да
        Не


        Top 10 за месяц (Фильмы)