.
Авторизация | Регистрация
Хочешь лучшие торренты? Добавь свой email!
Добавить
» » Школьница с бензопилой / Chimamire sukeban chns (2016) BDRip 720p | L2 скачать торрент бесплатно




    Школьница с бензопилой / Chimamire sukeban chns (2016) BDRip 720p | L2 скачать торрент бесплатно

    Опубликовал: Админ | Дата: 30-12-2016, 09:00 | Просмотров: 8



    Детально о кино
    Русское название: Школьница с бензопилой
    Русское название в мировом прокате: Chimamire sukeban ch?ns?
    Создали в: 2016
    Категория жанра: ужасы, боевик, трэш
    Главный режиссер: Хироки Ямагути

    Актеры
    Мидзухо Абэ, Сэйдзиро Накамура, Рэй Нисимура, Каяко Окуда, Сэира Сато, Юки Тамаки, Рио Утида, Мари Ямати

    Сюжет фильма

    Нокомура Гико — не самая прилежная ученица средней школы. Однажды ей приходится вступить в кровавую схватку с зомби, которые когда-то были её одноклассниками.
    Присутствует ненормативная лексика

    Снималось в: Япония
    Киностудия: Dub, VAP Inc.
    Время просмотра: 01: 16: 11
    Перевод текста: Любительский двухголосный, закадровый DeadSno den904
    Перевод текста на русский: akira9
    Файл
    Кодек для видео: H.264
    Качество фильма: BDRip 720p
    Информация о видео: MPEG-4/AVC, 1280x544 (2.35: 1), 23.976 fps ~ 4980 Kbps
    Информация о звуке:
    AC3, 48 KHz 6 ch ~ 640 Kb/s (русский)
    AC3, 48 KHz 6 ch ~ 640 Kb/s (японский)
    Субтитры: китайские
    MI:

    Общее
    Уникальный идентификатор : 194883698063711948945433422809593388591 (0x929D3C277A4C8B17BC14B6F0CB019E2F)
    Полное имя : Q: TorFBloody.Chainsaw.Girl.2016.BDRip.720p.mkv
    Формат : Matroska
    Версия формата : Version 2
    Размер файла : 3, 34 Гбайт
    Продолжительность : 1 ч. 16 м.
    Общий поток : 6280 Кбит/сек
    Название фильма : Jubowo @ WiKi
    Дата кодирования : UTC 2016-12-29 10: 12: 40
    Программа кодирования : mkvmerge v5.4.0 (;Piper;) built on Mar 10 2012 13: 34: 39
    Библиотека кодирования : libebml v1.2.3 + libmatroska v1.3.0
    DURATION : 01: 11: 51.110000000
    NUMBER_OF_FRAMES : 887
    NUMBER_OF_BYTES : 43818
    _STATISTICS_WRITING_APP : mkvmerge v9.2.0 (;Photograph;) 64bit
    _STATISTICS_WRITING_DATE_UTC : 2016-07-04 13: 41: 42
    _STATISTICS_TAGS : BPS DURATION NUMBER_OF_FRAMES NUMBER_OF_BYTES
    Attachment : Yes/Yes/Yes
    Видео
    Идентификатор : 1
    Формат : AVC
    Формат/Информация : Advanced Video Codec
    Профиль формата : High@L4.1
    Параметр CABAC формата : Да
    Параметр ReFrames формата : 12 кадров
    Идентификатор кодека : V_MPEG4/ISO/AVC
    Продолжительность : 1 ч. 16 м.
    Битрейт : 4980 Кбит/сек
    Ширина : 1280 пикселей
    Высота : 544 пикселя
    Соотношение сторон : 2, 35: 1
    Частота кадров : 23, 976 кадра/сек
    Цветовое пространство : YUV
    Субдискретизация насыщенности : 4: 2: 0
    Битовая глубина : 8 бит
    Тип развёртки : Прогрессивная
    Бит/(Пиксели*Кадры) : 0.298
    Размер потока : 2, 59 Гбайт (78%)
    Библиотека кодирования : x264 core 129 r2245+704+36 8e61944 tMod+MixAQ 8-bit@4: 2: 0 X86_64
    Настройки программы : cabac=1/ref=12/deblock=1: -3: -3/analyse=0x3: 0x133/me=umh/subme=11/psy=1/fade_compensate=0.00/psy_rd=1.05: 0.10/mixed_ref=1/me_range=32/chroma_me=1/trellis=2/8x8dct=1/cqm=0/deadzone=21, 11/fast_pskip=0/chroma_qp_offset=-3/threads=18/lookahead_threads=3/sliced_threads=0/nr=0/decimate=0/interlaced=0/bluray_compat=0/constrained_intra=0/fgo=0/bframes=10/b_pyramid=2/b_adapt=2/b_bias=0/direct=3/weightb=1/open_gop=0/weightp=2/keyint=250/keyint_min=23/scenecut=40/intra_refresh=0/rc_lookahead=80/rc=2pass/mbtree=1/bitrate=4980/ratetol=1.0/qcomp=0.70/qpmin=0/qpmax=69/qpstep=4/cplxblur=20.0/qblur=0.5/ip_ratio=1.40/aq=1/aq-strength=0.85/aq-sensitivity=10.00/aq-ifactor=1.00/aq-pfactor=1.00/aq-bfactor=1.00/aq2=0
    Язык : Japanese
    Default : Да
    Forced : Нет
    DURATION : 01: 16: 11.567000000
    NUMBER_OF_FRAMES : 109608
    NUMBER_OF_BYTES : 2843409637
    _STATISTICS_WRITING_APP : mkvmerge v9.2.0 (;Photograph;) 64bit
    _STATISTICS_WRITING_DATE_UTC : 2016-07-04 13: 41: 42
    _STATISTICS_TAGS : BPS DURATION NUMBER_OF_FRAMES NUMBER_OF_BYTES
    Аудио #1
    Идентификатор : 2
    Формат : AC-3
    Формат/Информация : Audio Coding 3
    Расширение режима : CM (complete main)
    Идентификатор кодека : A_AC3
    Продолжительность : 1 ч. 16 м.
    Вид битрейта : Постоянный
    Битрейт : 640 Кбит/сек
    Каналы : 6 каналов
    Расположение каналов : Front: L C R, Side: L R, LFE
    Частота : 48, 0 КГц
    Битовая глубина : 16 бит
    Метод сжатия : С потерями
    Размер потока : 349 Мбайт (10%)
    Заголовок : DVOL DeadSno den904
    Язык : Russian
    Default : Да
    Forced : Нет
    Аудио #2
    Идентификатор : 3
    Формат : AC-3
    Формат/Информация : Audio Coding 3
    Расширение режима : CM (complete main)
    Идентификатор кодека : A_AC3
    Продолжительность : 1 ч. 16 м.
    Вид битрейта : Постоянный
    Битрейт : 640 Кбит/сек
    Каналы : 6 каналов
    Расположение каналов : Front: L C R, Side: L R, LFE
    Частота : 48, 0 КГц
    Битовая глубина : 16 бит
    Метод сжатия : С потерями
    Размер потока : 349 Мбайт (10%)
    Заголовок : Jap
    Язык : Japanese
    Default : Нет
    Forced : Нет
    Текст
    Идентификатор : 4
    Формат : ASS
    Идентификатор кодека : S_TEXT/ASS
    Идентификатор кодека/Информация : Advanced Sub Station Alpha
    Метод сжатия : Без потерь
    Язык : Chinese
    Default : Да
    Forced : Нет
    Меню
    00: 00: 00.000 : en: 00: 00: 00.000
    00: 03: 29.042 : en: 00: 03: 29.042
    00: 16: 25.859 : en: 00: 16: 25.859
    00: 24: 29.885 : en: 00: 24: 29.885
    00: 35: 32.588 : en: 00: 35: 32.588
    00: 45: 47.870 : en: 00: 45: 47.870
    01: 02: 41.382 : en: 01: 02: 41.382
    01: 11: 40.296 : en: 01: 11: 40.296

    Скриншоты


    Онлайн видео Школьница с бензопилой


    Размер скачиваемого торрента: 3.34 GB (3588750809 Bytes)

    Школьница с бензопилой/Chimamire sukeban chns (2016) BDRip 720p | L2
    загрузка...
    Рейтинг →
     (голосов: 1, оценка 3/5, голосовать можно 1 раз )

    Другие торренты по теме:

  • Школьница с бензопилой / Chimamire sukeban chns (2016) BDRip 1080p | L2


    • Комментарии (0):

      Информация

      Информация

        Посетители, находящиеся в группе Гости, не могут оставлять комментарии в данной новости.

        ↓ Меню



        ↓ Опрос

        А Вы добавили сайт в закладки?
        Да
        Не


        Top 10 за месяц (Фильмы)