.
Авторизация | Регистрация
Хочешь лучшие торренты? Добавь свой email!
Добавить
» » Коготь из Мавритании (2016) WEB-DL 1080p от ExKinoRay скачать торрент бесплатно




    Коготь из Мавритании (2016) WEB-DL 1080p от ExKinoRay скачать торрент бесплатно

    Опубликовал: Админ | Дата: 30-11-2016, 05:02 | Просмотров: 27



    Коготь из Мавритании
    Сезон 2, эпизоды с 1 по 4 (из 4)

    Создали в: 2016
    Снималось в: Россия
    Создали в: Кинокомпания Марс Медиа Энтертейнмент
    Категория жанра: Детектив
    Главный режиссёр: Наталья Хлопецкая

    Актеры
    Марина Коняшкина, Сергей Галахов, Сергей Жарков, Илья Древнов, Сергей Петров, Сергей Кизас, Людмила Чурсина, Константин Чепурин
    Перевод текста: Не требуется
    Субтитры: Нет
    Реклама: Отсутствует

    Описание фильма
    После нескольких месяцев затишья в столице возобновляются ритуальные убийства девушек. К расследованию подключается майор Александра Мур. Ей предстоит сработаться с новым напарником Дмитрием Роговым. Но есть задача и посложнее - найти подход к профессору Шульцу, который отбывает наказание за пособничество в убийствах. Именно погибшего брата Шульца считали маньяком до возобновления серии. Становится ясно: родственник профессора, как минимум, не единственный виновный...


    Качество фильма: WEB-DL 1080
    Время просмотра: 4 х 00: 47: 00
    Тип видео: MKV
    Информация о видео кодек: MPEG-4 AVC
    Информация о звуке кодек: АС3
    Свойства видео: 1920x1080 (16: 9), 25 fps, MPEG-4 AVC ~3 240 kbps avg, 0.053 bit/pixel
    Свойства аудио: 48 KHz, AC3, 2 ch, ~192.00 kbps avg

    MediaInfo

    Общее
    Уникальный идентификатор : 250123977681405514171057383950838031103 (0xBC2C20373840D606A5A434111F8E62FF)
    Полное имя : D: Kogot.iz.Mavritanii.2.WEB-DL(1080p).ExKinoRay4.Kogot.iz.Mavritanii.2.WEB-DL(1080p).ExKinoRay.mkv
    Формат : Matroska
    Версия формата : Version 2
    Размер файла : 1, 22 Гбайт
    Продолжительность : 49 м.
    Общий поток : 3504 Кбит/сек
    Название фильма : 04.Kogot.iz.Mavritanii.2.WEB-DL(1080p).ExKinoRay от TorpedoUK
    Дата кодирования : UTC 2016-11-27 10: 28: 37
    Программа кодирования : mkvmerge v7.8.0 (;River Man;) 32bit built on Apr 3 2015 12: 11: 22
    Библиотека кодирования : libebml v1.3.1 + libmatroska v1.4.2
    Видео
    Идентификатор : 1
    Формат : AVC
    Формат/Информация : Advanced Video Codec
    Профиль формата : High@L4.0
    Параметр CABAC формата : Да
    Параметр ReFrames формата : 2 кадра
    Идентификатор кодека : V_MPEG4/ISO/AVC
    Продолжительность : 49 м.
    Битрейт : 3242 Кбит/сек
    Ширина : 1920 пикселей
    Высота : 1080 пикселей
    Соотношение сторон : 16: 9
    Режим частоты кадров : Постоянный
    Частота кадров : 25, 000 кадров/сек
    Цветовое пространство : YUV
    Субдискретизация насыщенности : 4: 2: 0
    Битовая глубина : 8 бит
    Тип развёртки : Прогрессивная
    Бит/(Пиксели*Кадры) : 0.063
    Размер потока : 1, 13 Гбайт (93%)
    Default : Да
    Forced : Нет
    Основные цвета : BT.709
    Характеристики трансфера : BT.709
    Коэффициенты матрицы : BT.709
    Аудио
    Идентификатор : 2
    Формат : AC-3
    Формат/Информация : Audio Coding 3
    Расширение режима : CM (complete main)
    Параметр Endianness формата : Big
    Идентификатор кодека : A_AC3
    Продолжительность : 49 м.
    Вид битрейта : Постоянный
    Битрейт : 192 Кбит/сек
    Каналы : 2 канала
    Расположение каналов : Front: L R
    Частота : 48, 0 КГц
    Битовая глубина : 16 бит
    Метод сжатия : С потерями
    Размер потока : 68, 2 Мбайт (5%)
    Default : Да
    Forced : Нет

    Скриншоты



    Залил: TorpedoUK
    Размер скачиваемого торрента: 4.25 GB (4563591025 Bytes)

    Коготь из Мавритании (2016) WEB-DL 1080p от ExKinoRay
    загрузка...
    Рейтинг →
     (голосов: 1, оценка 4/5, голосовать можно 1 раз )

    Другие торренты по теме:

  • Коготь из Мавритании (2016) SATRip-AVC от Files-x
  • Коготь из Мавритании (2016) WEB-DLRip | КПК
  • Коготь из Мавритании (2015) WEB-DLRip | КПК
  • Коготь из Мавритании (2015) HDTV 1080i от MediaClub


    • Комментарии (0):

      Информация

      Информация

        Посетители, находящиеся в группе Гости, не могут оставлять комментарии в данной новости.

        ↓ Меню



        ↓ Опрос

        А Вы добавили сайт в закладки?
        Да
        Не


        Top 10 за месяц (Фильмы)