.
Авторизация | Регистрация
Хочешь лучшие торренты? Добавь свой email!
Добавить




Мимино (1977) HDTVRip от New-Team скачать торрент бесплатно

Опубликовал: Админ | Дата: 28-11-2016, 05:01 | Просмотров: 50



Снималось в: СССР
Создали в: Мосфильм
Категория жанра: комедия
Создали в: 1977
Время просмотра: 01: 31: 18
Перевод текста: Не требуется
Субтитры подготовлены: нет
Оригинальная аудиодорожка: русский
Главный режиссёр: Георгий Данелия

Актеры

Вахтанг Кикабидзе, Фрунзик Мкртчян, Елена Проклова, Евгений Леонов, Коте (Константин) Даушвили, Руслан Микаберидзе, Закро Сахвадзе, Марина Дюжева, Русико Морчеладзе, Арчил Гомиашвили...
Полный список актёров
Описание:
Мимино — по-грузински сокол. Так называют друзья героя фильма, летчика Валико Мизандари, по воле режиссера то и дело попадающего в смешные, грустные, а порой драматические ситуации.
Работая в родном горном селении, Мимино перевозит на вертолете почту, фрукты, овец. Но он давно мечтает о настоящей, большой авиации. Наконец, ему удается воплотить свою мечту в жизнь…




Исходник: HDTVRip 1080i
Качество фильма: HDTVRip
Тип видео: AVI
Информация о видео: 720x544 (4: 3), 25 fps, XviD ~ 2091 kbps avg, 0.214 bit/pixel
Информация о звуке: 48 kHz, Dolby Digital AC3, 2.0 ch, 192.00 kbps
Раздача от:
MediaInfo

Общее
Полное имя : Mimino.1977.HDTVRip_New-team_by_AVP_Studio.avi
Формат : AVI
Формат/Информация : Audio Video Interleave
Размер файла : 1, 46 Гбайт
Продолжительность : 1 ч. 31 м.
Общий поток : 2293 Кбит/сек
Программа кодирования : VirtualDubMod 1.5.10.3 | www.virtualdub-fr.org || (build 2550/release)
Библиотека кодирования : VirtualDubMod build 2550/release
Видео
Идентификатор : 0
Формат : MPEG-4 Visual
Профиль формата : Advanced Simple@L5
Параметр BVOP формата : 1
Параметр QPel формата : Нет
Параметр GMC формата : Без точки перехода
Параметр матрицы формата : Выборочная
Идентификатор кодека : XVID
Идентификатор кодека/Подсказка : XviD
Продолжительность : 1 ч. 31 м.
Битрейт : 2091 Кбит/сек
Ширина : 720 пикселей
Высота : 544 пикселя
Соотношение сторон : 4: 3
Частота кадров : 25, 000 кадров/сек
Цветовое пространство : YUV
Субдискретизация насыщенности : 4: 2: 0
Битовая глубина : 8 бит
Тип развёртки : Прогрессивная
Метод сжатия : С потерями
Бит/(Пиксели*Кадры) : 0.214
Размер потока : 1, 33 Гбайт (91%)
Библиотека кодирования : XviD 1.2.1 (UTC 2008-12-04)
Аудио
Идентификатор : 1
Формат : AC-3
Формат/Информация : Audio Coding 3
Расширение режима : CM (complete main)
Параметр Endianness формата : Big
Идентификатор кодека : 2000
Продолжительность : 1 ч. 31 м.
Вид битрейта : Постоянный
Битрейт : 192 Кбит/сек
Каналы : 2 канала
Расположение каналов : Front: L R
Частота : 48, 0 КГц
Частота кадров : 31, 250 кадров/сек (1536 spf)
Битовая глубина : 16 бит
Метод сжатия : С потерями
Размер потока : 125 Мбайт (8%)
Выравнивание : Разделение по промежуткам
Продолжительность промежутка : 40 мс. (1, 00 видеокадр)
Время предзагрузки промежутка : 500 мс

Скриншоты



Залил: AVPStudio

Онлайн видео Мимино (1977) HDTVRip от New


Размер скачиваемого торрента: 1.46 GB (1567750144 Bytes)

Мимино (1977) HDTVRip от New-Team
загрузка...
Рейтинг →
 (голосов: 1, оценка 5/5, голосовать можно 1 раз )

Другие торренты по теме:

  • Мимино (1977) HDTVRip от GeneralFilm
  • Мимино (1977) HDTVRip 720p
  • Мимино (1977) HDTVRip от New-Team
  • Мимино (1977) HDTVRip 720p от New-Team


    • Комментарии (0):

      Информация

      Информация

        Посетители, находящиеся в группе Гости, не могут оставлять комментарии в данной новости.

        ↓ Меню



        ↓ Опрос

        А Вы добавили сайт в закладки?
        Да
        Не


        Top 10 за месяц (Фильмы)