.
Авторизация | Регистрация
Хочешь лучшие торренты? Добавь свой email!
Добавить
» » Кабинет / Parlor (2015) HDRip от Portablius | L2 скачать торрент бесплатно




    Кабинет / Parlor (2015) HDRip от Portablius | L2 скачать торрент бесплатно

    Опубликовал: Админ | Дата: 28-11-2016, 05:00 | Просмотров: 4



    Детально о кино
    Русское название: Кабинет
    Русское название в мировом прокате: Parlor
    Создали в: 2015
    Категория жанра: ужасы
    Главный режиссер: Девон Даунс

    Актеры
    Роберт ЛаСардо, Сара Фабел, Тиффани ДеМарко, Джордан Джеймс Смит, Энтони Дель Негро, Джои Фишер, Клер Гарви, Бен Уэйлен

    Сюжет фильма
    Шестеро студентов колледжа отправляются на каникулы в Восточную Европу, но в погоне за весельем они попадают прямиком в лапы татуировщика-садиста, для которого наколки далеко не единственный источник доходов...

    Снималось в: Литва
    Время просмотра: 01: 38: 46
    Перевод текста: Любительский (двухголосый, закадровый) | den904 DeadSno
    Субтитры: Нет
    ПРИСУТСТВУЕТ НЕНОРМАТИВНАЯ ЛЕКСИКА!
    Семпл
    Файл
    Кодек для видео: XviD
    Качество фильма: HDRip
    Информация о видео: 720x304 (2.37: 1), 23.976 fps, XviD build 73 ~853 kbps avg, 0.16 bit/pixel
    Информация о звуке: 48 kHz, MPEG Layer 3, 2 ch, ~192.00 kbps avg
    MediaInfo
    Общее
    Полное имя : Anarchy.Parlor.2015.HDRip.ot.Portablius.avi
    Формат : AVI
    Формат/Информация : Audio Video Interleave
    Размер файла : 745 Мбайт
    Продолжительность : 1 ч. 38 м.
    Общий поток : 1055 Кбит/сек
    Программа кодирования : VirtualDubMod 1.5.10.3 | www.virtualdub-fr.org || (build 2550/release)
    Библиотека кодирования : VirtualDubMod build 2550/release
    Видео
    Идентификатор : 0
    Формат : MPEG-4 Visual
    Профиль формата : Advanced Simple@L5
    Параметр BVOP формата : 1
    Параметр QPel формата : Нет
    Параметр GMC формата : Без точки перехода
    Параметр матрицы формата : Выборочная
    Идентификатор кодека : XVID
    Идентификатор кодека/Подсказка : XviD
    Продолжительность : 1 ч. 38 м.
    Битрейт : 854 Кбит/сек
    Ширина : 720 пикселей
    Высота : 304 пикселя
    Соотношение сторон : 2, 35: 1
    Частота кадров : 23, 976 (24000/1001) кадра/сек
    Частота кадров в оригинале : 23, 976 (23976/1000) кадра/сек
    Цветовое пространство : YUV
    Субдискретизация насыщенности : 4: 2: 0
    Битовая глубина : 8 бит
    Тип развёртки : Прогрессивная
    Метод сжатия : С потерями
    Бит/(Пиксели*Кадры) : 0.163
    Размер потока : 603 Мбайт (81%)
    Библиотека кодирования : XviD 73
    Аудио
    Идентификатор : 1
    Формат : MPEG Audio
    Версия формата : Version 1
    Профиль формата : Layer 3
    Идентификатор кодека : 55
    Идентификатор кодека/Подсказка : MP3
    Продолжительность : 1 ч. 38 м.
    Вид битрейта : Постоянный
    Битрейт : 192 Кбит/сек
    Каналы : 2 канала
    Частота : 48, 0 КГц
    Метод сжатия : С потерями
    Размер потока : 136 Мбайт (18%)
    Выравнивание : Соединение по промежуткам
    Продолжительность промежутка : 42 мс. (1, 00 видеокадр)
    Время предзагрузки промежутка : 504 мс.
    Библиотека кодирования : LAME3.99r
    Залил: Evgen Portable

    Онлайн видео Кабинет


    Размер скачиваемого торрента: 745.19 MB (781383680 Bytes)


    Кабинет/Parlor (2015) HDRip от Portablius | L2
    загрузка...
    Рейтинг →
     (голосов: 1, оценка 4/5, голосовать можно 1 раз )

    Другие торренты по теме:

  • Кабинет / Parlor (2015) BDRip 720p | L2
  • Кабинет / Parlor (2015) BDRip 1080p | L2
  • Кабинет / Parlor (2015) BDRip | L2


    • Комментарии (0):

      Информация

      Информация

        Посетители, находящиеся в группе Гости, не могут оставлять комментарии в данной новости.

        ↓ Меню



        ↓ Опрос

        А Вы добавили сайт в закладки?
        Да
        Не


        Top 10 за месяц (Фильмы)