.
Авторизация | Регистрация
Хочешь лучшие торренты? Добавь свой email!
Добавить
» » Папоротниковая гора / Fern Hill (2005) DVDRip | A скачать торрент бесплатно




    Папоротниковая гора / Fern Hill (2005) DVDRip | A скачать торрент бесплатно

    Опубликовал: Админ | Дата: 28-11-2016, 05:00 | Просмотров: 7



    Детально о кино
    Русское название: Папоротниковая гора
    Русское название в мировом прокате: Fern Hill
    Создали в: 2005
    Категория жанра: драма, семейный, приключения
    Главный режиссер: Коул Клаассен

    Актеры
    Дэниэл Джеймс, Дэвид Джеймс, Майлс Брюс, МакКензи Харден, Зейн Артега, Женевьева Бахманн, Ной Карилло, Мэттью Л. Харт, Перри Льюис, Дэвид Рассел

    Сюжет фильма

    Необъяснимая тайна исчезновения отца юного Колина и его небольшого самолета семь лет назад вынуждает мальчика вместе с тремя 13-летними друзьями отправиться на поиски в горы Колорадо в уик-энд лета 1987 года. В поисках ответов на непростые жизненные вопросы друзья стараются помочь и поддержать Колина… Приключения, борьба за жизнь, страхи и надежды связывают и укрепляют их дружбу.

    Создали в: США/AGAPE Productions
    Время просмотра: 01: 12: 26
    Перевод текста: авторский одноголосыйАлександр Смирнов
    Файл
    Качество фильма: DVDRip
    Тип видео: AVI
    Информация о видео: XviD, 720x400 (16: 9), 29.970 fps, 1647 kbps, 0.191 bit/pixel
    Информация о звуке #1: русский, AC3 2.0, 48 kHz, 192 kbps
    Информация о звуке #2: английский, AC3 2.0, 48 kHz, 192 kbps
    MediaInfo
    Формат : AVI
    Формат/Информация : Audio Video Interleave
    Размер файла : 1, 04 Гбайт
    Продолжительность : 1 ч. 12 м.
    Общий поток : 2049 Кбит/сек
    Программа кодирования : VirtualDubModRus 1.5.10.2 (build 2542/release)
    Библиотека кодирования : VirtualDubMod build 2542/release
    Видео
    Идентификатор : 0
    Формат : MPEG-4 Visual
    Профиль формата : Advanced Simple@L5
    Параметр BVOP формата : 2
    Параметр QPel формата : Нет
    Параметр GMC формата : Без точки перехода
    Параметр матрицы формата : Default (MPEG)
    Идентификатор кодека : XVID
    Идентификатор кодека/Подсказка : XviD
    Продолжительность : 1 ч. 12 м.
    Битрейт : 1647 Кбит/сек
    Ширина : 720 пикселей
    Высота : 400 пикселей
    Соотношение сторон : 16: 9
    Частота кадров : 29, 970 кадров/сек
    Цветовое пространство : YUV
    Субдискретизация насыщенности : 4: 2: 0
    Битовая глубина : 8 бит
    Тип развёртки : Прогрессивная
    Метод сжатия : С потерями
    Бит/(Пиксели*Кадры) : 0.191
    Размер потока : 853 Мбайт (80%)
    Библиотека кодирования : XviD 1.2.1 (UTC 2008-12-04)
    Аудио #1
    Идентификатор : 1
    Формат : AC-3
    Формат/Информация : Audio Coding 3
    Расширение режима : CM (complete main)
    Параметр Endianness формата : Big
    Идентификатор кодека : 2000
    Продолжительность : 1 ч. 12 м.
    Вид битрейта : Постоянный
    Битрейт : 192 Кбит/сек
    Каналы : 2 канала
    Расположение каналов : Front: L R
    Частота : 48, 0 КГц
    Метод сжатия : С потерями
    Размер потока : 99, 5 Мбайт (9%)
    Выравнивание : Разделение по промежуткам
    Продолжительность промежутка : 33 мс. (1, 00 видеокадр)
    Время предзагрузки промежутка : 500 мс.
    Аудио #2
    Идентификатор : 2
    Формат : AC-3
    Формат/Информация : Audio Coding 3
    Расширение режима : CM (complete main)
    Параметр Endianness формата : Big
    Идентификатор кодека : 2000
    Продолжительность : 1 ч. 12 м.
    Вид битрейта : Постоянный
    Битрейт : 192 Кбит/сек
    Каналы : 2 канала
    Расположение каналов : Front: L R
    Частота : 48, 0 КГц
    Метод сжатия : С потерями
    Размер потока : 99, 5 Мбайт (9%)
    Выравнивание : Разделение по промежуткам
    Продолжительность промежутка : 33 мс. (1, 00 видеокадр)
    Время предзагрузки промежутка : 500 мс.
    Скриншоты

    Залил: makkaronni

    Онлайн видео Папоротниковая гора


    Размер скачиваемого торрента: 1.04 GB (1113126912 Bytes)

    Папоротниковая гора/Fern Hill (2005) DVDRip | A
    загрузка...
    Рейтинг →
     (голосов: 1, оценка 3/5, голосовать можно 1 раз )

    Другие торренты по теме:



      Комментарии (0):

      Информация

      Информация

        Посетители, находящиеся в группе Гости, не могут оставлять комментарии в данной новости.

        ↓ Меню



        ↓ Опрос

        А Вы добавили сайт в закладки?
        Да
        Не


        Top 10 за месяц (Фильмы)