.
Авторизация | Регистрация
Хочешь лучшие торренты? Добавь свой email!
Добавить
» » Доверие / The Trust (2016) BDRip 720p от ExKinoRay | A скачать торрент бесплатно




    Доверие / The Trust (2016) BDRip 720p от ExKinoRay | A скачать торрент бесплатно

    Опубликовал: Админ | Дата: 27-11-2016, 05:00 | Просмотров: 26



    Детально о кино
    Русское название: Доверие
    Русское название в мировом прокате: The Trust
    Создали в: 2016
    Категория жанра: триллер, криминал
    Главный режиссер: Бенжамин Брюэр

    Актеры
    Николас Кейдж, Элайджа Вуд, Джерри Льюис, Стивен Уильямс, Скай Феррейра, Кевин Уайзман, Лиза Гарднер, Кристи Беран, Джеффри Ховард, Томми Вегас
    О фильме:
    Парочка коррумпированных полицейских в отделе улик обнаруживает сейф с нарко-деньгами. Решив похитить тайник, они не подозревают, что вступают в игру за собственные жизни.

    Снималось в: Великобритания
    Киностудия: Electric Shadow Company, The ; Hassell Free Production, Highland Film Group (HFG), Ingenious Media, Prettybird, Saban Films, Saeculum Productions
    Время просмотра: 01: 31: 43
    Перевод текста: Авторский | Вячеслав Котов
    Файл
    Кодек для видео: MPEG-4
    Качество фильма: BDRip 720p
    Информация о видео: 1280x694, 8118 Kbit/s, 23.976 fps
    Информация о звуке:
    Информация о звуке #01: 48 kHz, DTS, 5.1, 1510 Kbps | Авторский |
    Информация о звуке #02: 48 kHz, AC3, 5.1, 640 Kbps | Авторский |
    Информация о звуке #03: 48 kHz, DTS, 5.1, 1510 kbps | Оригинал |
    Субтитры: Русские, английские
    MI
    General
    Unique ID : 211063662842571900884125339785729878741 (0x9EC96202116C54D2A20CB7A057772AD5)
    Complete name : G: VideoThe.Trust.2016.AVO.BDRip.720p.ExKinoRay.mkv
    Format : Matroska
    Format version : Version 4/Version 2
    File size : 7.55 GiB
    Duration : 1 h 31 min
    Overall bit rate : 11.8 Mb/s
    Movie name : The.Trust.2016***селезень***
    Encoded date : UTC 2016-11-26 16: 16: 58
    Writing application : mkvmerge v8.3.0 (;Over the Horizon;) 64bit
    Writing library : libebml v1.3.1 + libmatroska v1.4.2
    Video
    ID : 1
    Format : AVC
    Format/Info : Advanced Video Codec
    Format profile : High@L4.1
    Format settings, CABAC : Yes
    Format settings, ReFrames : 9 frames
    Codec ID : V_MPEG4/ISO/AVC
    Duration : 1 h 31 min
    Bit rate : 8 118 kb/s
    Width : 1 280 pixels
    Height : 694 pixels
    Display aspect ratio : 1.85: 1
    Frame rate mode : Constant
    Frame rate : 23.976 (24000/1001) FPS
    Color space : YUV
    Chroma subsampling : 4: 2: 0
    Bit depth : 8 bits
    Scan type : Progressive
    Bits/(Pixel*Frame) : 0.381
    Stream size : 5.20 GiB (69%)
    Title : The.Trust.2016***селезень***
    Writing library : x264 core 142 r2409kMod d6b4e63
    Encoding settings : cabac=1/ref=9/deblock=1: -3: -3/analyse=0x3: 0x133/me=umh/subme=10/psy=1/fade_compensate=0.00/psy_rd=1.00: 0.00/mixed_ref=1/me_range=32/chroma_me=1/trellis=2/8x8dct=1/cqm=0/deadzone=21, 11/fast_pskip=0/chroma_qp_offset=-2/threads=6/lookahead_threads=1/sliced_threads=0/nr=0/decimate=0/interlaced=0/bluray_compat=0/constrained_intra=0/fgo=0/bframes=10/b_pyramid=2/b_adapt=2/b_bias=0/direct=3/weightb=1/open_gop=0/weightp=2/keyint=250/keyint_min=24/scenecut=40/intra_refresh=0/rc=crf/mbtree=0/crf=18.8000/qcomp=0.60/qpmin=0/qpmax=69/qpstep=4/ip_ratio=1.40/pb_ratio=1.30/aq=3: 0.70
    Language : English
    Default : Yes
    Forced : No
    Color range : Limited
    Matrix coefficients : BT.709
    Audio #1
    ID : 2
    Format : DTS
    Format/Info : Digital Theater Systems
    Mode : 16
    Format settings, Endianness : Big
    Codec ID : A_DTS
    Duration : 1 h 31 min
    Bit rate mode : Constant
    Bit rate : 1 509 kb/s
    Channel(s) : 6 channels
    Channel positions : Front: L C R, Side: L R, LFE
    Sampling rate : 48.0 kHz
    Frame rate : 93.750 FPS (512 spf)
    Bit depth : 16 bits
    Compression mode : Lossy
    Stream size : 990 MiB (13%)
    Title : AVO-DTS Kotov
    Language : Russian
    Default : Yes
    Forced : No
    Audio #2
    ID : 3
    Format : AC-3
    Format/Info : Audio Coding 3
    Mode extension : CM (complete main)
    Format settings, Endianness : Big
    Codec ID : A_AC3
    Duration : 1 h 31 min
    Bit rate mode : Constant
    Bit rate : 640 kb/s
    Channel(s) : 6 channels
    Channel positions : Front: L C R, Side: L R, LFE
    Sampling rate : 48.0 kHz
    Frame rate : 31.250 FPS (1536 spf)
    Bit depth : 16 bits
    Compression mode : Lossy
    Stream size : 420 MiB (5%)
    Title : AVO-AC3 Kotov
    Language : Russian
    Default : No
    Forced : No
    Audio #3
    ID : 4
    Format : DTS
    Format/Info : Digital Theater Systems
    Mode : 16
    Format settings, Endianness : Big
    Codec ID : A_DTS
    Duration : 1 h 31 min
    Bit rate mode : Constant
    Bit rate : 1 509 kb/s
    Channel(s) : 6 channels
    Channel positions : Front: L C R, Side: L R, LFE
    Sampling rate : 48.0 kHz
    Frame rate : 93.750 FPS (512 spf)
    Bit depth : 16 bits
    Compression mode : Lossy
    Stream size : 990 MiB (13%)
    Title : Original
    Language : English
    Default : No
    Forced : No
    Text #1
    ID : 5
    Format : UTF-8
    Codec ID : S_TEXT/UTF8
    Codec ID/Info : UTF-8 Plain Text
    Duration : 1 h 22 min
    Bit rate : 55 b/s
    Count of elements : 618
    Stream size : 33.5 KiB (0%)
    Title : Full
    Language : Russian
    Default : No
    Forced : No
    Text #2
    ID : 6
    Format : UTF-8
    Codec ID : S_TEXT/UTF8
    Codec ID/Info : UTF-8 Plain Text
    Duration : 1 h 23 min
    Bit rate : 37 b/s
    Count of elements : 790
    Stream size : 23.0 KiB (0%)
    Title : Full
    Language : English
    Default : No
    Forced : No
    Menu
    00: 00: 00.000 : en: Chapter 01
    00: 08: 26.047 : en: Chapter 02
    00: 15: 33.265 : en: Chapter 03
    00: 20: 30.729 : en: Chapter 04
    00: 28: 15.610 : en: Chapter 05
    00: 35: 00.598 : en: Chapter 06
    00: 40: 28.509 : en: Chapter 07
    00: 48: 53.847 : en: Chapter 08
    00: 56: 25.924 : en: Chapter 09
    01: 04: 44.171 : en: Chapter 10
    01: 14: 14.366 : en: Chapter 11
    01: 23: 31.965 : en: Chapter 12
    01: 31: 43.456 : en: Chapter 13


    Релиз подготовил: Автор релиза:

    Онлайн видео Доверие


    Размер скачиваемого торрента: 7.55 GB (8103398006 Bytes)

    Доверие/The Trust (2016) BDRip 720p от ExKinoRay | A
    загрузка...
    Рейтинг →
     (голосов: 1, оценка 5/5, голосовать можно 1 раз )

    Другие торренты по теме:

  • Слепое доверие / Blind Trust (2007) SATRip от RG MixTorrent | P2
  • Доверие / The Trust (2016)
  • Доверие / The Trust (2016) BDRip 720p | L
  • Доверие / The Trust (2016) HDRip от MegaPeer | A
  • Доверие / The Trust (2016) BDRip 720p от ExKinoRay | D, A | iTunes
  • Доверие / The Trust (2016) HDRip от MegaPeer | iTunes
  • Доверие / The Trust (2016) BDRip от MegaPeer | iTunes
  • Доверие / The Trust (2016) BDRip-AVC от OlLanDGroup | iTunes


    • Комментарии (0):

      Информация

      Информация

        Посетители, находящиеся в группе Гости, не могут оставлять комментарии в данной новости.

        ↓ Меню



        ↓ Опрос

        А Вы добавили сайт в закладки?
        Да
        Не


        Top 10 за месяц (Фильмы)