.
Авторизация | Регистрация
Хочешь лучшие торренты? Добавь свой email!
Добавить
» » Ночной беглец / Run All Night (2015) HDRip от Portablius | A скачать торрент бесплатно




    Ночной беглец / Run All Night (2015) HDRip от Portablius | A скачать торрент бесплатно

    Опубликовал: Админ | Дата: 26-11-2016, 05:00 | Просмотров: 15



    Детально о кино
    Русское название: Ночной беглец
    Русское название в мировом прокате: Run All Night
    Создали в: 2015
    Категория жанра: Боевик, криминал, драма
    Главный режиссер: Хауме Кольет-Серра

    Актеры
    иам Нисон, Юэль Киннаман, Коммон, Эд Харрис, Бойд Холбрук, Брюс МакГилл, Дженезис Родригез, Винсент Д’Онофрио, Луис Смит, Бо Напп

    Сюжет фильма
    Фильм расскажет историю киллера, вступившего в конфликт с бывшим боссом и в итоге вынужденного пуститься в бега, чтобы защитить свою семью от преследования мафией и властями.

    Снималось в: США
    Киностудия: RatPac-Dune Entertainment, Energy Entertainment, Vertigo Entertainment
    Время просмотра: 01: 54: 21
    Перевод текста: Авторский (одноголосый, закадровый) А.Гаврилов
    Субтитры: Нет
    Семпл
    Файл
    Кодек для видео: XviD
    Качество фильма: HDRip
    Информация о видео: 656x272 (2.41: 1), 23.976 fps, XviD build 73 ~773 kbps avg, 0.18 bit/pixel
    Информация о звуке: 48 kHz, MPEG Layer 3, 2 ch, ~128.00 kbps avg
    MediaInfo
    Общее
    Полное имя : Run.All.Night.2015.A.HDRip.ot.Portablius.avi
    Формат : AVI
    Формат/Информация : Audio Video Interleave
    Размер файла : 745 Мбайт
    Продолжительность : 1 ч. 54 м.
    Общий поток : 911 Кбит/сек
    Программа кодирования : VirtualDubMod 1.5.10.3 | www.virtualdub-fr.org || (build 2550/release)
    Библиотека кодирования : VirtualDubMod build 2550/release
    Видео
    Идентификатор : 0
    Формат : MPEG-4 Visual
    Профиль формата : Advanced Simple@L5
    Параметр BVOP формата : 1
    Параметр QPel формата : Нет
    Параметр GMC формата : Без точки перехода
    Параметр матрицы формата : Выборочная
    Идентификатор кодека : XVID
    Идентификатор кодека/Подсказка : XviD
    Продолжительность : 1 ч. 54 м.
    Битрейт : 774 Кбит/сек
    Ширина : 656 пикселей
    Высота : 272 пикселя
    Соотношение сторон : 2, 40: 1
    Частота кадров : 23, 976 (24000/1001) кадра/сек
    Частота кадров в оригинале : 23, 976 (23976/1000) кадра/сек
    Цветовое пространство : YUV
    Субдискретизация насыщенности : 4: 2: 0
    Битовая глубина : 8 бит
    Тип развёртки : Прогрессивная
    Метод сжатия : С потерями
    Бит/(Пиксели*Кадры) : 0.181
    Размер потока : 633 Мбайт (85%)
    Библиотека кодирования : XviD 73
    Аудио
    Идентификатор : 1
    Формат : MPEG Audio
    Версия формата : Version 1
    Профиль формата : Layer 3
    Идентификатор кодека : 55
    Идентификатор кодека/Подсказка : MP3
    Продолжительность : 1 ч. 54 м.
    Вид битрейта : Постоянный
    Битрейт : 128 Кбит/сек
    Каналы : 2 канала
    Частота : 48, 0 КГц
    Метод сжатия : С потерями
    Размер потока : 105 Мбайт (14%)
    Выравнивание : Соединение по промежуткам
    Продолжительность промежутка : 42 мс. (1, 00 видеокадр)
    Время предзагрузки промежутка : 504 мс.
    Библиотека кодирования : LAME3.99r
    Залил: Evgen Portable

    Онлайн видео Ночной беглец


    Размер скачиваемого торрента: 745.17 MB (781369344 Bytes)


    Ночной беглец/Run All Night (2015) HDRip от Portablius | A
    загрузка...
    Рейтинг →
     (голосов: 1, оценка 3/5, голосовать можно 1 раз )

    Другие торренты по теме:

  • Ночной беглец / Run All Night (2015) CAMRip | D
  • Ночной беглец / Run All Night (2015) WEBRip | Звук с TS
  • Ночной беглец / Run All Night (2015) WEBRip 1080p от СЕНЯ009 | D | Чистый звук
  • Ночной беглец / Run All Night (2015) WEB-DLRip | Чистый звук
  • Ночной беглец / Run All Night (2015) WEB-DL 720p | Чистый звук
  • Ночной беглец / Run All Night (2015) WEB-DL 1080p | Чистый звук
  • Ночной беглец / Run All Night (2015) WEB-DLRip | Чистый звук
  • Ночной беглец / Run All Night (2015) BDRip 720p | Чистый звук


    • Комментарии (0):

      Информация

      Информация

        Посетители, находящиеся в группе Гости, не могут оставлять комментарии в данной новости.

        ↓ Меню



        ↓ Опрос

        А Вы добавили сайт в закладки?
        Да
        Не


        Top 10 за месяц (Фильмы)