.
Авторизация | Регистрация
Хочешь лучшие торренты? Добавь свой email!
Добавить
» » Могучий Джо Янг / Mighty Joe Young (1998) WEB-DL 720p | D, P, A скачать торрент бесплатно




    Могучий Джо Янг / Mighty Joe Young (1998) WEB-DL 720p | D, P, A скачать торрент бесплатно

    Опубликовал: Админ | Дата: 26-11-2016, 05:00 | Просмотров: 12



    Детально о кино
    Русское название: Могучий Джо Янг
    Русское название в мировом прокате: Mighty Joe Young
    Создали в: 1998
    Категория жанра: фэнтези, боевик, триллер, приключения, семейный
    Главный режиссер: Рон Андервуд

    Актеры
    Шарлиз Терон, Билл Пэкстон, Раде Шербеджия, Питер Фёрт, Дэвид Пэймер, Реджина Кинг, Роберт Уиздом, Навин Эндрюс, Лоуренс Прессман, Линда Перл

    Сюжет фильма

    От его поступи содрогается земля. Его вид приводит в трепет любого. Его мощи позавидуют самые отчаянные силачи. Его неспособна удержать ни одна клетка в мире. Могучий Джо Янг не хочет войны, но он сможет постоять за себя и защитить своих друзей, кто бы ни встал на его пути…

    Снималось в: США
    Киностудия: RKO Pictures, Walt Disney Pictures
    Время просмотра: 01: 54: 27
    Перевод текста: Профессиональный (дублированный) Невафильм + Профессиональный (многоголосый, закадровый) СТС + Авторский (одноголосый, закадровый) А.Кашкин
    Файл
    Тип видео: Matroska
    Качество фильма: WEB-DL 720p
    Информация о видео: 1280x686 at 23.976 fps, MPEG-4 AVC, ~3800 kbps avg
    Информация о звуке#1: Russian: 48 kHz, AC3 Dolby Digital, 2/0 (L, R) ch, ~224 kbps|Дубляж, Невафильм|
    Информация о звуке#2: Russian: 48 kHz, AC3 Dolby Digital, 2/0 (L, R) ch, ~192 kbps|Многоголосый закадровый, СТС|
    Информация о звуке#3: Russian: 48 kHz, AC3 Dolby Digital, 3/2 (L, C, R, l, r) + LFE ch, ~384 kbps|Авторский, А.Кашкин|
    Информация о звуке#4: English: 48 kHz, AC3 Dolby Digital, 3/2 (L, C, R, l, r) + LFE ch, ~384 kbps
    Субтитры: English
    ***Сохранены и подписаны оригинальные главы.
    ***Релиз - Dreven.
    MI
    Общее
    Уникальный идентификатор : 223815763830423427830062550973477117766 (0xA8615920ED916D3DAC794C5A6C8D5F46)
    Полное имя : Mighty Joe Young. WEB-DL 720p.mkv
    Формат : Matroska
    Версия формата : Version 4/Version 2
    Размер файла : 4, 08 Гбайт
    Продолжительность : 1 ч. 54 м.
    Общий поток : 5102 Кбит/сек
    Дата кодирования : UTC 2016-11-24 18: 24: 45
    Программа кодирования : mkvmerge v9.4.2 (;So High;) 64bit
    Библиотека кодирования : libebml v1.3.4 + libmatroska v1.4.5
    Attachment : Yes
    Видео
    Идентификатор : 1
    Формат : AVC
    Формат/Информация : Advanced Video Codec
    Профиль формата : High@L3.1
    Параметр CABAC формата : Нет
    Параметр ReFrames формата : 2 кадра
    Идентификатор кодека : V_MPEG4/ISO/AVC
    Продолжительность : 1 ч. 54 м.
    Битрейт : 3817 Кбит/сек
    Ширина : 1280 пикселей
    Высота : 686 пикселей
    Соотношение сторон : 1, 85: 1
    Режим частоты кадров : Постоянный
    Частота кадров : 23, 976 кадра/сек
    Цветовое пространство : YUV
    Субдискретизация насыщенности : 4: 2: 0
    Битовая глубина : 8 бит
    Тип развёртки : Прогрессивная
    Бит/(Пиксели*Кадры) : 0.181
    Размер потока : 3, 05 Гбайт (75%)
    Язык : English
    Default : Да
    Forced : Нет
    Основные цвета : BT.709
    Характеристики трансфера : BT.709
    Коэффициенты матрицы : BT.709
    Аудио #1
    Идентификатор : 2
    Формат : AC-3
    Формат/Информация : Audio Coding 3
    Расширение режима : CM (complete main)
    Параметр Endianness формата : Big
    Идентификатор кодека : A_AC3
    Продолжительность : 1 ч. 54 м.
    Вид битрейта : Постоянный
    Битрейт : 224 Кбит/сек
    Каналы : 2 канала
    Расположение каналов : Front: L R
    Частота : 48, 0 КГц
    Битовая глубина : 16 бит
    Метод сжатия : С потерями
    Размер потока : 183 Мбайт (4%)
    Заголовок : Невафильм
    Язык : Russian
    Default : Да
    Forced : Нет
    Аудио #2
    Идентификатор : 3
    Формат : AC-3
    Формат/Информация : Audio Coding 3
    Расширение режима : CM (complete main)
    Параметр Endianness формата : Big
    Идентификатор кодека : A_AC3
    Продолжительность : 1 ч. 54 м.
    Вид битрейта : Постоянный
    Битрейт : 192 Кбит/сек
    Каналы : 2 канала
    Расположение каналов : Front: L R
    Частота : 48, 0 КГц
    Битовая глубина : 16 бит
    Метод сжатия : С потерями
    Размер потока : 157 Мбайт (4%)
    Заголовок : СТС
    Язык : Russian
    Default : Нет
    Forced : Нет
    Аудио #3
    Идентификатор : 4
    Формат : AC-3
    Формат/Информация : Audio Coding 3
    Расширение режима : CM (complete main)
    Параметр Endianness формата : Big
    Идентификатор кодека : A_AC3
    Продолжительность : 1 ч. 54 м.
    Вид битрейта : Постоянный
    Битрейт : 384 Кбит/сек
    Каналы : 6 каналов
    Расположение каналов : Front: L C R, Side: L R, LFE
    Частота : 48, 0 КГц
    Битовая глубина : 16 бит
    Метод сжатия : С потерями
    Размер потока : 314 Мбайт (8%)
    Заголовок : Александр Кашкин
    Язык : Russian
    Default : Нет
    Forced : Нет
    Аудио #4
    Идентификатор : 5
    Формат : AC-3
    Формат/Информация : Audio Coding 3
    Расширение режима : CM (complete main)
    Параметр Endianness формата : Big
    Идентификатор кодека : A_AC3
    Продолжительность : 1 ч. 54 м.
    Вид битрейта : Постоянный
    Битрейт : 384 Кбит/сек
    Каналы : 6 каналов
    Расположение каналов : Front: L C R, Side: L R, LFE
    Частота : 48, 0 КГц
    Битовая глубина : 16 бит
    Метод сжатия : С потерями
    Размер потока : 314 Мбайт (8%)
    Язык : English
    Default : Нет
    Forced : Нет
    Текст
    Идентификатор : 6
    Формат : UTF-8
    Идентификатор кодека : S_TEXT/UTF8
    Идентификатор кодека/Информация : UTF-8 Plain Text
    Язык : English
    Default : Нет
    Forced : Нет
    Меню
    00: 00: 00.000 : en: Program Start
    00: 01: 02.000 : en: The Goodnight Song
    00: 10: 57.000 : en: Looking For A Legend
    00: 15: 29.000 : en: N;Gai Zamu
    00: 23: 49.000 : en: Lucky To Be Alive
    00: 26: 31.000 : en: Hide And Seek
    00: 32: 44.000 : en: Not What He Seems
    00: 36: 35.000 : en: Time To Trust
    00: 41: 57.000 : en: A New Home
    00: 53: 02.000 : en: Strasser;s Justice
    01: 00: 28.000 : en: Provoked
    01: 13: 56.000 : en: Escape
    01: 19: 47.000 : en: Jill Remembers
    01: 26: 33.000 : en: Towards The Light
    01: 33: 33.000 : en: Rush Into Danger
    01: 45: 25.000 : en: End Credits
    Скриншоты

    Залил: MrRavage

    Онлайн видео Могучий Джо Янг


    Размер скачиваемого торрента: 4.08 GB (4380000556 Bytes)

    Могучий Джо Янг/Mighty Joe Young (1998) WEB-DL 720p | D, P, A
    загрузка...
    Рейтинг →
     (голосов: 1, оценка 4/5, голосовать можно 1 раз )

    Другие торренты по теме:

  • Могучий Джо Янг / Mighty Joe Young (1998) DVDRip
  • OST - Могучий Джо Янг / Mighty Joe Young (1998) MP3
  • Могучий Куинн / The Mighty Quinn (1989) HDTVRip | P2
  • Кинг Конг (Могучий Конг) / The Mighty Kong / 1998 / ПМ / DVDRip
  • Могучий Куинн / The Mighty Quinn (1989) BDRemux 1080р | P2


    • Комментарии (0):

      Информация

      Информация

        Посетители, находящиеся в группе Гости, не могут оставлять комментарии в данной новости.

        ↓ Меню



        ↓ Опрос

        А Вы добавили сайт в закладки?
        Да
        Не


        Top 10 за месяц (Фильмы)