.
Авторизация | Регистрация
Хочешь лучшие торренты? Добавь свой email!
Добавить
» » Я слишком сильно вас люблю / Je vous aime trs beaucoup (2010) DVDRip | Sub скачать торрент бесплатно




    Я слишком сильно вас люблю / Je vous aime trs beaucoup (2010) DVDRip | Sub скачать торрент бесплатно

    Опубликовал: Админ | Дата: 25-11-2016, 05:00 | Просмотров: 20



    Детально о кино
    Русское название: Я слишком сильно вас люблю/Я вас очень-очень люблю
    Русское название в мировом прокате: Je vous aime tr?s beaucoup
    Создали в: 2010
    Категория жанра: комедия, драма, семейный
    Главный режиссер: Филипп Локе

    Актеры
    Фирмин Ришар, Макс Клавелли, Жюльен Крампон, Пьер Лефевр, Бруно Лоше, Леопольдин Серр, Аксель Бут, Филипп Дюкен, Альберт Дельпи

    Сюжет фильма

    Три сводных брата 8, 15 и 17 лет, выросшие в разной социальной среде, впервые встречаются после смерти их матери. Они вместе проведут летние каникулы у бабушки среди тайн и кроликов, поленты и подвохов, приключений и того, что случается в первый раз...

    Создали в: Франция/Mazel Productions, Canal+, Cin?Cin?ma
    Время просмотра: 01: 27: 53
    Перевод текста: русские субтитры от souther
    Файл
    Качество фильма: DVDRip
    Тип видео: AVI
    Информация о видео: XviD, 576x240 (2.40: 1), 25.000 fps, 969 kbps, 0.28 bit/pixel
    Информация о звуке: французский, MP3 2.0, 48 kHz, 128 kbps
    Субтитры: русские, английские внешние, SRT
    MediaInfo
    Формат : AVI
    Формат/Информация : Audio Video Interleave
    Размер файла : 700 Мбайт
    Продолжительность : 1 ч. 27 м.
    Режим общего битрейта : Переменный
    Общий поток : 1113 Кбит/сек
    Программа кодирования : Nandub v1.0rc2
    Библиотека кодирования : Nandub build 1853/release
    Видео
    Идентификатор : 0
    Формат : MPEG-4 Visual
    Профиль формата : Advanced Simple@L5
    Параметр BVOP формата : 2
    Параметр QPel формата : Нет
    Параметр GMC формата : Без точки перехода
    Параметр матрицы формата : Default (H.263)
    Идентификатор кодека : XVID
    Идентификатор кодека/Подсказка : XviD
    Продолжительность : 1 ч. 27 м.
    Битрейт : 969 Кбит/сек
    Ширина : 576 пикселей
    Высота : 240 пикселей
    Соотношение сторон : 2, 40: 1
    Частота кадров : 25, 000 кадров/сек
    Цветовое пространство : YUV
    Субдискретизация насыщенности : 4: 2: 0
    Битовая глубина : 8 бит
    Тип развёртки : Прогрессивная
    Метод сжатия : С потерями
    Бит/(Пиксели*Кадры) : 0.280
    Размер потока : 609 Мбайт (87%)
    Библиотека кодирования : XviD 57
    Аудио
    Идентификатор : 1
    Формат : MPEG Audio
    Версия формата : Version 1
    Профиль формата : Layer 3
    Режим : Joint stereo
    Расширение режима : MS Stereo
    Идентификатор кодека : 55
    Идентификатор кодека/Подсказка : MP3
    Продолжительность : 1 ч. 27 м.
    Вид битрейта : Переменный
    Битрейт : 128 Кбит/сек
    Каналы : 2 канала
    Частота : 48, 0 КГц
    Метод сжатия : С потерями
    Размер потока : 82, 8 Мбайт (12%)
    Выравнивание : Соединение по промежуткам
    Продолжительность промежутка : 24 мс. (0, 60 видеокадр)
    Время предзагрузки промежутка : 134 мс.
    Библиотека кодирования : LAME3.90.
    Залил: makkaronni

    Онлайн видео Я слишком сильно вас люблю


    Размер скачиваемого торрента: 700.10 MB (734104093 Bytes)


    Я слишком сильно вас люблю/Je vous aime trs beaucoup (2010) DVDRip | Sub
    загрузка...
    Рейтинг →
     (голосов: 1, оценка 4/5, голосовать можно 1 раз )

    Другие торренты по теме:

  • Мужчина, которого слишком сильно любили / Lhomme quon aimait trop
  • Мужчина, которого слишком сильно любили / Lhomme quon aimait trop (2014) WEBRip | P
  • Мужчина, которого слишком сильно любили / Lhomme quon aimait trop (2014) BDRip 720p от CINEMANIA | P скачать через торрент бесплатно
  • Мужчина, которого слишком сильно любили / Lhomme quon aimait trop (2014) BDRemux 1080р | Р


    • Комментарии (0):

      Информация

      Информация

        Посетители, находящиеся в группе Гости, не могут оставлять комментарии в данной новости.

        ↓ Меню



        ↓ Опрос

        А Вы добавили сайт в закладки?
        Да
        Не


        Top 10 за месяц (Фильмы)