.
Авторизация | Регистрация
Хочешь лучшие торренты? Добавь свой email!
Добавить
» » Ледокол (2016) WEB-DL 1080p | Apple TV скачать торрент бесплатно




    Ледокол (2016) WEB-DL 1080p | Apple TV скачать торрент бесплатно

    Опубликовал: Админ | Дата: 23-11-2016, 05:00 | Просмотров: 7


    ? Ледокол?

    Детально о кино:
    Страна: Россия
    Производство: Профит
    Год выпуска: 2016
    Жанр: Драма
    Режиссер: Николай Хомерики

    В ролях
    Пётр Фёдоров, Владимир Машков, Юлия Хлынина, Франциска Петри, Мартин Вуттке, Сергей Гармаш, Павел Табаков, Юрий Колокольников, Александр Яценко, Юрий Кузнецов
    Перевод: Не требуется iTunes
    Продолжительность: 02: 03: 53
    Описание фильма:
    ? Основано на реальных событиях. 1985 год. Навстречу ледоколу Михаил Громов движется огромный айсберг. Уходя от столкновения с ним, судно попадает в ледовый плен и оказывается в вынужденном дрейфе вблизи побережья Антарктиды. Вокруг зловещая тишина и жуткий холод. Горючее на исходе… Нервы на пределе… И даже если можно было бы уйти – деваться все равно некуда. У командования ледокола нет права на ошибку. Одно неверное решение – и тяжелые льды раздавят судно…


    iTunes Meta Tags/MediaInfo
    Sort Name: Ледокол
    XID: Apple: vendor_id: 2016-893880
    contentID: 1165342216
    Copyright: © 2016 Профит
    Screenwriters: Алексей Онищенко, Андрей Золотарев
    Producers: Игорь Толстунов, Сергей Козлов, Александр Козлов
    Director: Николай Хомерики
    Cast: Пётр Фёдоров, Сергей Пускепалис, Анна Михалкова, Ольга Филимонова, Александр Яценко, Александр Паль, Виталий Хаев, Алексей Барабаш, Дмитрий Муляр, Артур Чиргадзе
    Studio: Профит
    Rating: 134
    Long Deion: Основано на реальных событиях. 1985 год. Навстречу ледоколу Михаил Громов движется огромный айсберг. Уходя от столкновения с ним, судно попадает в ледовый плен и оказывается в вынужденном дрейфе вблизи побережья Антарктиды. Вокруг зловещая тишина и жуткий холод. Горючее на исходе... Нервы на пределе... И даже если можно было бы уйти - деваться все равно некуда. У командования ледокола нет права на ошибку. Одно неверное решение - и тяжелые льды раздавят судно...
    Deion: Основано на реальных событиях. 1985 год. Навстречу ледоколу Михаил Громов движется огромный айсберг. Уходя от столкновения с ним, судно попадает в ледовый плен и оказывается в вынужденном дрейфе вблизи побережья Антарктиды. Вокруг зловещая тишина и жуткий холод. Горючее на исходе... Нервы на пределе... И даже если можно было бы уйти - деваться все равно некуда. У командования ледокола нет права на ошибку. Одно неверное решение - и тяжелые льды раздавят судно...
    Release Date: 2016-11-04T08: 00: 00Z
    Genre: Русское кино
    Artist: Николай Хомерики
    Name: ЛедоколGeneral
    Complete name : Ledokol.WEB-DL.1080p.m4v
    Format : MPEG-4
    Codec ID : M4V
    File size : 4.41 GiB
    Duration : 2h 3mn
    Overall bit rate mode : Variable
    Overall bit rate : 5 092 Kbps
    Movie name : Ледокол
    Performer : Николай Хомерики
    Director : Николай Хомерики
    Actor : Пётр Фёдоров/Сергей Пускепалис/Анна Михалкова/Ольга Филимонова/Александр Яценко/Александр Паль/Виталий Хаев/Алексей Барабаш/Дмитрий Муляр/Артур Чиргадзе
    Screenplay by : Алексей Онищенко/Андрей Золотарев
    Producer : Игорь Толстунов/Сергей Козлов/Александр Козлов
    Production studio : Профит
    Genre : Русское кино
    ContentType : Short Film
    Deion : Основано на реальных событиях. 1985 год. Навстречу ледоколу Михаил Громов движется огромный айсберг. Уходя от столкновения с ним, судно попадает в ледовый плен и оказывается в вынужденном дрейфе вблизи побережья Антарктиды. Вокруг зловещая тишина и жуткий холод. Горючее на исходе... Нервы на пределе... И даже если можно было бы уйти - деваться все равно некуда. У командования ледокола нет права на ошибку. Одно неверное решение - и тяжелые льды раздавят судно...
    Recorded date : UTC 2016-11-04 08: 00: 00
    Encoded date : UTC 2016-11-21 10: 01: 42
    Tagged date : UTC 2016-11-21 10: 11: 39
    Copyright : © 2016 Профит
    Cover : Yes
    Rating : None
    Title/Sort : Ледокол
    LongDeion : Основано на реальных событиях. 1985 год. Навстречу ледоколу Михаил Громов движется огромный айсберг. Уходя от столкновения с ним, судно попадает в ледовый плен и оказывается в вынужденном дрейфе вблизи побережья Антарктиды. Вокруг зловещая тишина и жуткий холод. Горючее на исходе... Нервы на пределе... И даже если можно было бы уйти - деваться все равно некуда. У командования ледокола нет права на ошибку. Одно неверное решение - и тяжелые льды раздавят судно...
    AppleStoreCatalogID : 1165342216
    Vendor : Apple: vendor_id: 2016-893880
    ContentRating : ru-movie|12+|200|
    Video #1
    ID : 1
    Format : AVC
    Format/Info : Advanced Video Codec
    Format profile : High@L4
    Format settings, CABAC : Yes
    Format settings, ReFrames : 5 frames
    Codec ID : avc1
    Codec ID/Info : Advanced Video Coding
    Duration : 2h 3mn
    Bit rate : 4 543 Kbps
    Width : 1 920 pixels
    Height : 804 pixels
    Display aspect ratio : 2.40: 1
    Frame rate mode : Variable
    Frame rate : 24.000 fps
    Minimum frame rate : 23.810 fps
    Maximum frame rate : 24.390 fps
    Color space : YUV
    Chroma subsampling : 4: 2: 0
    Bit depth : 8 bits
    Scan type : Progressive
    Bits/(Pixel*Frame) : 0.123
    Stream size : 3.93 GiB (89%)
    Title : Main Program
    Language : Russian
    Encoded date : UTC 2016-11-21 10: 01: 42
    Tagged date : UTC 2016-11-21 10: 01: 49
    Color range : Limited
    Color primaries : BT.709
    Transfer characteristics : BT.709
    Matrix coefficients : BT.709
    Video #2
    ID : 5
    Format : JPEG
    Codec ID : jpeg
    Duration : 2h 3mn
    Bit rate mode : Variable
    Bit rate : 746 bps
    Width : 640 pixels
    Height : 268 pixels
    Display aspect ratio : 2.40: 1
    Frame rate mode : Variable
    Frame rate : 0.003 fps
    Minimum frame rate : 0.002 fps
    Maximum frame rate : 0.003 fps
    Color space : YUV
    Chroma subsampling : 4: 2: 0
    Bit depth : 8 bits
    Compression mode : Lossy
    Bits/(Pixel*Frame) : 1.450
    Stream size : 577 KiB (0%)
    Title : Chapter Images
    Language : Russian
    Encoded date : UTC 2016-11-21 10: 01: 58
    Tagged date : UTC 2016-11-21 10: 01: 58
    Audio #1
    ID : 2
    Format : AAC
    Format/Info : Advanced Audio Codec
    Format profile : LC
    Codec ID : 40
    Duration : 2h 3mn
    Bit rate mode : Variable
    Bit rate : 158 Kbps
    Maximum bit rate : 239 Kbps
    Channel(s) : 2 channels
    Channel positions : Front: L R
    Sampling rate : 48.0 KHz
    Compression mode : Lossy
    Stream size : 140 MiB (3%)
    Title : Russian Stereo
    Language : Russian
    Encoded date : UTC 2016-11-21 10: 01: 42
    Tagged date : UTC 2016-11-21 10: 01: 51
    Audio #2
    ID : 3
    Format : AC-3
    Format/Info : Audio Coding 3
    Mode extension : CM (complete main)
    Format settings, Endianness : Big
    Codec ID : ac-3
    Duration : 2h 3mn
    Bit rate mode : Constant
    Bit rate : 384 Kbps
    Channel(s) : 6 channels
    Channel positions : Front: L C R, Side: L R, LFE
    Sampling rate : 48.0 KHz
    Bit depth : 16 bits
    Compression mode : Lossy
    Stream size : 340 MiB (8%)
    Title : Russian DD 5.1
    Language : Russian
    Encoded date : UTC 2016-11-21 10: 01: 42
    Tagged date : UTC 2016-11-21 10: 01: 49
    Menu #1
    00: 00: 00.000 : 1
    00: 06: 27.958 : 2
    00: 12: 44.083 : 3
    00: 19: 01.791 : 4
    00: 25: 05.957 : 5
    00: 30: 53.832 : 6
    00: 36: 47.373 : 7
    00: 43: 08.331 : 8
    00: 48: 55.122 : 9
    00: 57: 04.288 : 10
    01: 03: 47.954 : 11
    01: 09: 57.204 : 12
    01: 16: 17.120 : 13
    01: 22: 14.828 : 14
    01: 27: 31.078 : 15
    01: 34: 19.536 : 16
    01: 41: 46.786 : 17
    01: 49: 49.286 : 18
    01: 56: 45.286 : 19
    Menu #2
    ID : 4
    Codec ID : text
    Duration : 2h 3mn
    Language : Russian
    Encoded date : UTC 2016-11-21 10: 01: 52
    Tagged date : UTC 2016-11-21 10: 01: 52
    00: 00: 00.000 : 1
    00: 06: 27.958 : 2
    00: 12: 44.083 : 3
    00: 19: 01.791 : 4
    00: 25: 05.957 : 5
    00: 30: 53.832 : 6
    00: 36: 47.373 : 7
    00: 43: 08.331 : 8
    00: 48: 55.122 : 9
    00: 57: 04.288 : 10
    01: 03: 47.954 : 11
    01: 09: 57.204 : 12
    01: 16: 17.120 : 13
    01: 22: 14.828 : 14
    01: 27: 31.078 : 15
    01: 34: 19.536 : 16
    01: 41: 46.786 : 17
    01: 49: 49.286 : 18
    01: 56: 45.286 : 19
    Bit rate mode : VBR

    Технические данные файла:
    ? Качество: WEB-DL ( Исходник: WEB-DL 1080p BlueBird)
    ? Формат: M4V
    ? Тип: HD ( (1080p))
    ? Видео кодек: H.264
    ? Аудио кодек: AAC-LC, AC-3
    ? Видео: 1920x804 (2.40: 1_, 24.000 fps, 4 543 Kbps(0.104 bit/pixel)
    ? Аудио #1: AAC/2.0/160 Kbps/48.0 KHz | RUS
    ? Аудио #2: AC-3/5.1/384 Kbps/48.0 KHz | RUS

    Скриншоты для ознакомления


    Залил: FanMobileReliz

    Онлайн видео Ледокол (2016) WEB-DL 1080p


    Размер скачиваемого торрента: 4.41 GB (4731961831 Bytes)

    Ледокол (2016) WEB-DL 1080p | Apple TV
    загрузка...
    Рейтинг →
     (голосов: 1, оценка 4/5, голосовать можно 1 раз )

    Другие торренты по теме:

  • Виктор Суворов - Ледокол (чит. автор) (1989) (2009) MP3
  • ЛедОкоЛ - Это Рок (2014) MP3
  • Ледокол (2016) WEB-DLRip | iTunes
  • Ледокол (2016) WEB-DLRip-AVC | iTunes
  • Ледокол (2016) WEB-DLRip-AVC | iTunes
  • Ледокол (2016) WEB-DLRip от Scarabey | iTunes
  • Ледокол (2016) Blu-Ray 1080p | Лицензия
  • Ледокол (2016) BDRip 1080p от New-Team qqss44 | Лицензия


    • Комментарии (0):

      Информация

      Информация

        Посетители, находящиеся в группе Гости, не могут оставлять комментарии в данной новости.

        ↓ Меню



        ↓ Опрос

        А Вы добавили сайт в закладки?
        Да
        Не


        Top 10 за месяц (Фильмы)