.
Авторизация | Регистрация
Хочешь лучшие торренты? Добавь свой email!
Добавить
» » Все дети Бога / Toti copiii domnului (2012) TVRip | L2 скачать торрент бесплатно




    Все дети Бога / Toti copiii domnului (2012) TVRip | L2 скачать торрент бесплатно

    Опубликовал: Админ | Дата: 21-11-2016, 05:00 | Просмотров: 20



    Детально о кино
    Русское название: Все дети Господа/Все дети Бога
    Русское название в мировом прокате: Toti copiii domnului/All Gods Children
    Создали в: 2012
    Категория жанра: драма
    Главный режиссер: Адриан Попович

    Актеры
    Джони Алич, Лилия Беджан, Ион Берегой, Вэс Блэквуд, Эмерджиан Казак, Анатол Дурбалэ, Аркел Иоселиани, Майкл Айронсайд, Алексей Мосевнин, Ина Сурду, Родика Оанта

    Сюжет фильма

    Первый в истории Молдовы фильм, номинированный страной на премию Оскар. Сюжет сосредоточен на драме 9-летнего ребёнка Пэвэлаша, который ищет свою мать, уехавшую за границу, а она, после возвращения домой, пытается продать сына семье из Канады.
    Описание с кинопоиска
    Главный герой фильма Пэвэлаш, ищет свою маму, которая пропала несколько лет назад. Отец умер, а мать, Ирина, находится в руках международной бандитской группировки, которая вынуждает её заниматься проституцией. Ирине удаётся вернуться на родину, в Молдову. Она планирует отдать Пэвэлаша на усыновление, за хорошее вознаграждение. А на деньги, вырученные за сына, попытаться откупиться от бандитов. И уже потом, найти Пэвэлаша и забрать его обратно.
    Но, вернувшись в родную деревню, она находит только разрушенный родительский дом, узнаёт что родители умерли, а Пэвэлаш отправлен в школу-интернат. Ирина находит сына. Но, их также находят бандиты, которые дают Ирине короткий срок для того, чтоб вернуть долг с процентами. Иначе они заберут себе ребёнка. Единственное спасение - это семья из Канады, которая хочет усыновить Пэвэлаша. Но ребёнок узнаёт о намерениях мамы и сбегает…


    Создали в: Молдова, Румыния/Artis Film, Diametral Film, Moldova Film
    Время просмотра: 01: 39: 45
    Перевод текста: любительский (двухголосый закадровый)Levelin
    Оригинальная аудиодорожка: румынский, русский, английский, итальянский языки
    Файл
    Качество фильма: TVRip
    Тип видео: AVI
    Информация о видео: XviD, 720x544 (4: 3), 25.000 fps, 860 kbps, 0.088 bit/pixel
    Информация о звуке #1: русский, MP3 2.0, 48 kHz, 192 kbps
    Информация о звуке #2: оригинал, MP3 2.0, 48 kHz, 107 kbps
    Субтитры: русские внешние, румынский хардсаб на не румынские диалоги
    MediaInfo
    Формат : AVI
    Формат/Информация : Audio Video Interleave
    Размер файла : 838 Мбайт
    Продолжительность : 1 ч. 39 м.
    Режим общего битрейта : Переменный
    Общий поток : 1174 Кбит/сек
    Программа кодирования : VirtualDubMod 1.5.10.2 (build 2542/release)
    Библиотека кодирования : VirtualDubMod build 2542/release
    Видео
    Идентификатор : 0
    Формат : MPEG-4 Visual
    Профиль формата : Advanced Simple@L5
    Параметр BVOP формата : 1
    Параметр QPel формата : Нет
    Параметр GMC формата : Без точки перехода
    Параметр матрицы формата : Выборочная
    Идентификатор кодека : XVID
    Идентификатор кодека/Подсказка : XviD
    Продолжительность : 1 ч. 39 м.
    Битрейт : 860 Кбит/сек
    Ширина : 720 пикселей
    Высота : 544 пикселя
    Соотношение сторон : 4: 3
    Частота кадров : 25, 000 кадров/сек
    Цветовое пространство : YUV
    Субдискретизация насыщенности : 4: 2: 0
    Битовая глубина : 8 бит
    Тип развёртки : Прогрессивная
    Метод сжатия : С потерями
    Бит/(Пиксели*Кадры) : 0.088
    Размер потока : 614 Мбайт (73%)
    Библиотека кодирования : XviD 1.2.1 (UTC 2008-12-04)
    Аудио #1
    Идентификатор : 1
    Формат : MPEG Audio
    Версия формата : Version 1
    Профиль формата : Layer 3
    Идентификатор кодека : 55
    Идентификатор кодека/Подсказка : MP3
    Продолжительность : 1 ч. 39 м.
    Вид битрейта : Постоянный
    Битрейт : 192 Кбит/сек
    Каналы : 2 канала
    Частота : 48, 0 КГц
    Метод сжатия : С потерями
    Размер потока : 137 Мбайт (16%)
    Выравнивание : Соединение по промежуткам
    Продолжительность промежутка : 40 мс. (1, 00 видеокадр)
    Время предзагрузки промежутка : 504 мс.
    Аудио #2
    Идентификатор : 2
    Формат : MPEG Audio
    Версия формата : Version 1
    Профиль формата : Layer 3
    Режим : Joint stereo
    Идентификатор кодека : 55
    Идентификатор кодека/Подсказка : MP3
    Продолжительность : 1 ч. 39 м.
    Вид битрейта : Переменный
    Битрейт : 107 Кбит/сек
    Номинальный битрейт : 128 Кбит/сек
    Каналы : 2 канала
    Частота : 48, 0 КГц
    Метод сжатия : С потерями
    Размер потока : 76, 3 Мбайт (9%)
    Выравнивание : Разделение по промежуткам
    Продолжительность промежутка : 40 мс. (1, 00 видеокадр)
    Время предзагрузки промежутка : 500 мс.
    Библиотека кодирования : LAME3.98r
    Залил: makkaronni

    Онлайн видео Все дети Бога


    Размер скачиваемого торрента: 837.78 MB (878480440 Bytes)


    Все дети Бога/Toti copiii domnului (2012) TVRip | L2
    загрузка...
    Рейтинг →
     (голосов: 1, оценка 4/5, голосовать можно 1 раз )

    Другие торренты по теме:

  • Все дети Бога могут танцевать / All Gods Children Can Dance (2008) DVDRip | P2
  • Дети тишины / Дети меньшего бога / Children of a Lesser God (1986) WEBRip 1080p | P2


    • Комментарии (0):

      Информация

      Информация

        Посетители, находящиеся в группе Гости, не могут оставлять комментарии в данной новости.

        ↓ Меню



        ↓ Опрос

        А Вы добавили сайт в закладки?
        Да
        Не


        Top 10 за месяц (Фильмы)