.
Авторизация | Регистрация
Хочешь лучшие торренты? Добавь свой email!
Добавить
» » Дети солнца (1956) SATRip от New-Team скачать торрент бесплатно




    Дети солнца (1956) SATRip от New-Team скачать торрент бесплатно

    Опубликовал: Админ | Дата: 20-11-2016, 05:00 | Просмотров: 27



    Снималось в: СССР
    Создали в: Киевская студия художественных фильмов (Русский драматический театр им. Леси Украинки)
    Категория жанра: драма
    Создали в: 1956
    Время просмотра: 02: 20: 53
    Перевод текста: Не требуется
    Субтитры подготовлены: нет
    Оригинальная аудиодорожка: русский
    Главный режиссер: Алексей Швачко

    Актеры

    Михаил Романов, Татьяна Семичёва, Вера Предаевич, Лидия Карташова, Юрий Лавров, Виктор Мягкий, Анна Николаева, Алексей Бунин, Олег Борисов, Неонила Гнеповская, Моисей Розин, Елена Метакса, Сергей Петров, Алексей Быков, Галина Жирова, Борис Марин...
    Полный список актёров
    Описание:
    По одноименной пьесе М. Горького.
    Фильм-спектакль в постановке Киевского государственного русского драматического театра имени Леси Украинки. Режиссеры спектакля — Влад Нелли, Михаил Романов.
    В эпоху перемен так трудно поймать мимолетное счастье… Начало XX века – это период расцвета науки и искусства и вместе с тем предвестие великой катастрофы. В экранизации пьесы Максима Горького поднимаются вечные темы любви, одиночества, отчуждения и надежды на фоне того удивительного времени.



    Источник: DVB
    Качество фильма видео: SATRip
    Тип видео видео: AVI
    Информация о видео: 688x512 (4: 3), 25 fps, XviD ~ 1346 kbps avg, 0.153 bit/pixel
    Информация о звуке: 48 kHz, MP3 2.0, 128 kbps
    Раздача от:
    MediaInfo

    Общее
    Полное имя : Deti.solnca.1956.SATRip_New-team_by_AVP_Studio.avi
    Формат : AVI
    Формат/Информация : Audio Video Interleave
    Размер файла : 1, 46 Гбайт
    Продолжительность : 2 ч. 20 м.
    Общий поток : 1483 Кбит/сек
    Программа кодирования : VirtualDubMod 1.5.10.3 | www.virtualdub-fr.org || (build 2550/release)
    Библиотека кодирования : VirtualDubMod build 2550/release
    Видео
    Идентификатор : 0
    Формат : MPEG-4 Visual
    Профиль формата : Advanced Simple@L5
    Параметр BVOP формата : 1
    Параметр QPel формата : Нет
    Параметр GMC формата : Без точки перехода
    Параметр матрицы формата : Выборочная
    Идентификатор кодека : XVID
    Идентификатор кодека/Подсказка : XviD
    Продолжительность : 2 ч. 20 м.
    Битрейт : 1346 Кбит/сек
    Ширина : 688 пикселей
    Высота : 512 пикселей
    Соотношение сторон : 4: 3
    Частота кадров : 25, 000 кадров/сек
    Цветовое пространство : YUV
    Субдискретизация насыщенности : 4: 2: 0
    Битовая глубина : 8 бит
    Тип развёртки : Прогрессивная
    Метод сжатия : С потерями
    Бит/(Пиксели*Кадры) : 0.153
    Размер потока : 1, 32 Гбайт (91%)
    Библиотека кодирования : XviD 1.2.1 (UTC 2008-12-04)
    Аудио
    Идентификатор : 1
    Формат : MPEG Audio
    Версия формата : Version 1
    Профиль формата : Layer 3
    Идентификатор кодека : 55
    Идентификатор кодека/Подсказка : MP3
    Продолжительность : 2 ч. 20 м.
    Вид битрейта : Постоянный
    Битрейт : 128 Кбит/сек
    Каналы : 2 канала
    Частота : 48, 0 КГц
    Метод сжатия : С потерями
    Размер потока : 129 Мбайт (9%)
    Выравнивание : Соединение по промежуткам
    Продолжительность промежутка : 40 мс. (1, 00 видеокадр)
    Время предзагрузки промежутка : 504 мс.
    Библиотека кодирования : LAME3.99r
    Залил: AVPStudio

    Онлайн видео Дети солнца (1956) SATRip от New


    Размер скачиваемого торрента: 1.46 GB (1567397888 Bytes)


    Дети солнца (1956) SATRip от New-Team
    загрузка...
    Рейтинг →
     (голосов: 1, оценка 3/5, голосовать можно 1 раз )

    Другие торренты по теме:

  • Дети солнца / Solarbabies (1986) BDRip-AVC от E76 | P2
  • Дети солнца / 1985 / РУ / DVDRip (AVC)
  • Дети солнца (1-2 серии из 2) / 1985 / РУ / DVDRip


    • Комментарии (0):

      Информация

      Информация

        Посетители, находящиеся в группе Гости, не могут оставлять комментарии в данной новости.

        ↓ Меню



        ↓ Опрос

        А Вы добавили сайт в закладки?
        Да
        Не


        Top 10 за месяц (Фильмы)