.
Авторизация | Регистрация
Хочешь лучшие торренты? Добавь свой email!
Добавить
» » Место под солнцем / A place in the sun (1951) WEB-DL 720p | P скачать торрент бесплатно




    Место под солнцем / A place in the sun (1951) WEB-DL 720p | P скачать торрент бесплатно

    Опубликовал: Админ | Дата: 19-11-2016, 05:00 | Просмотров: 12



    Создали в: Paramount Pictures (США)
    Категория жанра: Драма, Мелодрама
    Главный режиссер: Джордж Стивенс
    Актеры: Киф Брассель, Элизабет Тэйлор, Рэймонд Берр, Шелли Уинтерс, Энн Ревир, Фред, Монтгомери Клифт

    Описание фильма

    Джордж Истмен — парень из сельской глубинки, воспитанный пуританами. Богатый дядюшка предлагает устроить его на работу на принадлежащую ему фабрику по производству купальников. Единственное условие — никаких романов с женским персоналом. Однако запретный плод сладок. У Истмена завязывается роман с напарницей по конвейеру, Элис. Из страха перед руководством они скрывают свои отношения.
    Дядюшка доволен исполнительным родственником и продвигает его по службе. На него обращает внимание и неотразимая девушка из высшего общества — Анджела Викерс. Молодые люди без ума друга от друга, дело идёт к свадьбе. Между тем Элис узнаёт о своей беременности и требует от Джорджа оформить брак. Она угрожает предать их связь огласке, что неминуемо поставит крест на его карьере у Истменов.
    Релиз подготовил: HDClub
    Время просмотра: 02: 01: 58
    Качество фильма видео: WEB-DL
    Перевод текста: Профессиональный (многоголосый закадровый)
    Язык субтитров: английский
    Вид субтитров: Вшитые
    Информация о видео: AVC/H.264, 964x720, ~3886 kbps, Main@L3.1
    Информация о звуке 1: AC3, 6 ch, ~ 448.00 kbps, CBR | Русский (Многоголосый закадровый, R5)
    Информация о звуке 2: AC3, 6 ch, ~ 384.00 kbps, CBR | Английский
    Mediainfo:

    Общее
    Уникальный идентификатор : 237139375690831141684025382799032912663 (0xB26761E922E0439DBC63196CFC130B17)
    Полное имя : A.Place.In.the.Sun.1951.720p.WEB-DL.Rus.Eng.HDCLUB.mkv
    Формат : Matroska
    Версия формата : Version 2
    Размер файла : 4, 10 Гбайт
    Продолжительность : 2 ч. 1 м.
    Общий поток : 4814 Кбит/сек
    Дата кодирования : UTC 2016-11-04 07: 58: 08
    Программа кодирования : mkvmerge v3.1.0 (;Happy up here;) built on Jan 19 2010 12: 09: 24
    Библиотека кодирования : libebml v0.7.9 + libmatroska v0.8.1
    Видео
    Идентификатор : 1
    Формат : AVC
    Формат/Информация : Advanced Video Codec
    Профиль формата : Main@L3.1
    Параметр CABAC формата : Нет
    Параметр ReFrames формата : 2 кадра
    Идентификатор кодека : V_MPEG4/ISO/AVC
    Продолжительность : 2 ч. 1 м.
    Битрейт : 3886 Кбит/сек
    Ширина : 964 пикселя
    Высота : 720 пикселей
    Соотношение сторон : 4: 3
    Режим частоты кадров : Постоянный
    Частота кадров : 23, 976 кадра/сек
    Цветовое пространство : YUV
    Субдискретизация насыщенности : 4: 2: 0
    Битовая глубина : 8 бит
    Тип развёртки : Прогрессивная
    Бит/(Пиксели*Кадры) : 0.234
    Размер потока : 3, 31 Гбайт (81%)
    Язык : English
    Default : Нет
    Forced : Нет
    Цветовой диапазон : Limited
    Основные цвета : BT.709
    Характеристики трансфера : BT.709
    Коэффициенты матрицы : BT.709
    Аудио #1
    Идентификатор : 2
    Формат : AC-3
    Формат/Информация : Audio Coding 3
    Расширение режима : CM (complete main)
    Параметр Endianness формата : Big
    Идентификатор кодека : A_AC3
    Продолжительность : 2 ч. 1 м.
    Вид битрейта : Постоянный
    Битрейт : 448 Кбит/сек
    Каналы : 6 каналов
    Расположение каналов : Front: L C R, Side: L R, LFE
    Частота : 48, 0 КГц
    Частота кадров : 31, 250 кадров/сек (1536 spf)
    Битовая глубина : 16 бит
    Метод сжатия : С потерями
    Размер потока : 391 Мбайт (9%)
    Заголовок : MVO
    Язык : Russian
    Default : Да
    Forced : Нет
    Аудио #2
    Идентификатор : 3
    Формат : AC-3
    Формат/Информация : Audio Coding 3
    Расширение режима : CM (complete main)
    Параметр Endianness формата : Big
    Идентификатор кодека : A_AC3
    Продолжительность : 2 ч. 1 м.
    Вид битрейта : Постоянный
    Битрейт : 384 Кбит/сек
    Каналы : 6 каналов
    Расположение каналов : Front: L C R, Side: L R, LFE
    Частота : 48, 0 КГц
    Частота кадров : 31, 250 кадров/сек (1536 spf)
    Битовая глубина : 16 бит
    Метод сжатия : С потерями
    Размер потока : 335 Мбайт (8%)
    Язык : English
    Default : Нет
    Forced : Нет
    Текст
    Идентификатор : 4
    Формат : UTF-8
    Идентификатор кодека : S_TEXT/UTF8
    Идентификатор кодека/Информация : UTF-8 Plain Text
    Язык : English
    Default : Да
    Forced : Нет
    Меню
    00: 00: 00.000 : en: George Eastman
    00: 11: 58.000 : en: Factory Girl
    00: 24: 43.000 : en: Angela Vickers
    00: 32: 25.000 : en: In Trouble
    00: 39: 57.000 : en: Tell Mamma All
    00: 44: 11.000 : en: A Good Doctor
    00: 54: 49.000 : en: Loon Lake
    01: 04: 24.000 : en: Watery Grave
    01: 15: 56.000 : en: District Attorney
    01: 22: 48.000 : en: Parental Approval
    01: 31: 46.000 : en: Under Arrest
    01: 39: 20.000 : en: Murder Charge
    01: 52: 12.000 : en: Guilty Heart

    Рецензия, отзыв:

    Fammy
    Давно я не смотрел такой сильной мелодрамы, которая к тому же сочитает в себе элементы очень качественного триллера.
    С самых первых кадров и до последнего картина захватывает, не давай даже продохнуть и хочется, что бы она и вовсе не заканчивалась. Давненько я так не сочувствовал героям и не ставил себя на их место.
    Очень сильная режиссура, благодаря именно такой режиссуре забываешь что смотришь кино, а не наблюдаешь реальную жизнь. Все актерская тройка просто блестящая Монтгомери Клифт, Элизабет Тейлор, а особенно Шелли Уинтерс, ей отдельное браво.
    Те фильмы в которых персонажам удается заставить зрителя примерить собственный образ, больше всего влияют на него, на собственном примере предостерегая от подобных ошибок. Это один из таких фильмов.
    В 1998 году фильм был включен в рейтинг Американского Института Кино (AFI) в 100 лучших американских фильмов. Правда в 2007 году от туда выбыл, но зато сейчас по праву занимает 53 место среди ста лучших романтических фильмов по версии того же AFI.
    Я очень рекомендую посмотреть это кино любителям романтических триллеров, даже самые искушенные современные зрители наверняка останутся довольны.
    9 из 10

    Скриншоты:


    Онлайн видео Место под солнцем


    Размер скачиваемого торрента: 4.10 GB (4402970941 Bytes)

    Место под солнцем/A place in the sun (1951) WEB-DL 720p | P
    загрузка...
    Рейтинг →
     (голосов: 1, оценка 5/5, голосовать можно 1 раз )

    Другие торренты по теме:

  • Казино Надежда / Место под солнцем (2004) DVDRip
  • Место под солнцем / En plats i solen (2012) HDRip
  • Место под солнцем / 1982 / РУ / IPTVRip


    • Комментарии (0):

      Информация

      Информация

        Посетители, находящиеся в группе Гости, не могут оставлять комментарии в данной новости.

        ↓ Меню



        ↓ Опрос

        А Вы добавили сайт в закладки?
        Да
        Не


        Top 10 за месяц (Фильмы)