.
Авторизация | Регистрация
Хочешь лучшие торренты? Добавь свой email!
Добавить
» » Парни со стволами / War Dogs (2016) BDRip 720p от Scarabey | iTunes скачать торрент бесплатно




    Парни со стволами / War Dogs (2016) BDRip 720p от Scarabey | iTunes скачать торрент бесплатно

    Опубликовал: Админ | Дата: 17-11-2016, 05:00 | Просмотров: 27



    Создали в: 2016
    Снималось в: США
    Категория жанра: драма, комедия, криминал, военный
    Время просмотра: 01: 54: 12
    Перевод текста: Профессиональный (полное дублирование) iTunes
    Субтитры подготовлены: русские, форсированные
    Главный режиссер: Тодд Филлипс/Todd Phillips

    Актеры
    Майлз Теллер, Джона Хилл, Ана де Армас, Кевин Поллак, Брэдли Купер, Джейби Бланк, Шон Тоуб, Патрик Ст. Эсприт, Андрей Финти, Эдди Джемисон

    Описание фильма
    Реальная история о приятелях-планокурах из Майами, умудрившихся выбить в Пентагоне контракт на 300 миллионов долларов на поставку оружия.
    Качество фильма видео: BDRip 720p (IDE)
    Тип видео видео: MKV
    Информация о видео: 1280х534, 23.976 fps, AVC ~5500 kbps avg
    Информация о звуке: 48 kHz, AC3 Dolby Digital, 3/2 (L, C, R, l, r) + LFE ch, ~384 kbps
    Релиз подготовил:
    АНОНСЫ МОИХ РАЗДАЧ!



    МедиаИнфо

    War Dogs 2016 720p_BDRip_scarabey.org.mkv
    Формат : Matroska
    Версия формата : Version 4/Version 2
    Размер файла : 4, 69 Гбайт
    Продолжительность : 1 ч. 54 м.
    Общий поток : 5885 Кбит/сек
    Дата кодирования : UTC 2016-11-16 10: 44: 02
    Программа кодирования : mkvmerge v6.1.0 (;Old Devil;) built on Mar 4 2013 09: 10: 42
    Библиотека кодирования : libebml v1.3.0 + libmatroska v1.4.0
    Видео
    Идентификатор : 1
    Формат : AVC
    Формат/Информация : Advanced Video Codec
    Профиль формата : High@L4.1
    Параметр CABAC формата : Да
    Параметр ReFrames формата : 12 кадров
    Идентификатор кодека : V_MPEG4/ISO/AVC
    Продолжительность : 1 ч. 54 м.
    Битрейт : 5500 Кбит/сек
    Ширина : 1280 пикселей
    Высота : 534 пикселя
    Соотношение сторон : 2, 40: 1
    Режим частоты кадров : Постоянный
    Частота кадров : 23, 976 (24000/1001) кадра/сек
    Цветовое пространство : YUV
    Субдискретизация насыщенности : 4: 2: 0
    Битовая глубина : 8 бит
    Тип развёртки : Прогрессивная
    Бит/(Пиксели*Кадры) : 0.336
    Размер потока : 4, 29 Гбайт (91%)
    Библиотека кодирования : x264 core 148 r2705 3f5ed56
    Настройки программы : cabac=1/ref=12/deblock=1: -3: -3/analyse=0x3: 0x133/me=umh/subme=11/psy=1/psy_rd=1.05: 0.00/mixed_ref=1/me_range=32/chroma_me=1/trellis=2/8x8dct=1/cqm=0/deadzone=21, 11/fast_pskip=0/chroma_qp_offset=-2/threads=12/lookahead_threads=2/sliced_threads=0/slices=4/nr=0/decimate=0/interlaced=0/bluray_compat=0/constrained_intra=0/bframes=8/b_pyramid=2/b_adapt=2/b_bias=0/direct=3/weightb=1/open_gop=0/weightp=2/keyint=250/keyint_min=23/scenecut=40/intra_refresh=0/rc_lookahead=40/rc=2pass/mbtree=0/bitrate=5500/ratetol=1.0/qcomp=0.60/qpmin=0/qpmax=69/qpstep=4/cplxblur=20.0/qblur=0.5/vbv_maxrate=50000/vbv_bufsize=62500/nal_hrd=none/filler=0/ip_ratio=1.30/pb_ratio=1.30/aq=3: 0.75/zones=399, 1054, b=1.7/1537, 2976, b=1.4/22609, 24184, b=1.4/30311, 30981, b=1.4/31077, 31994, b=1.4/33867, 38946, b=1.4/40406, 40513, b=1.4/42218, 50254, b=1.4/57603, 62092, b=1.4/75161, 76028, b=1.4/78878, 81948, b=1.4/85699, 89238, b=1.4/93237, 96569, b=1.4/98268, 98460, b=1.4/112124, 113256, b=1.4/113664, 114216, b=1.4/114289, 115101, b=1.4/115154, 115299, b=1.4/116070, 119719, b=1.4/122467, 128420, b=1.4/128421, 129300, b=1.7/129301, 132321, b=1.4/148365, 148855, b=1.4/155837, 164305, b=0.2
    Язык : English
    Default : Да
    Forced : Нет
    Аудио
    Идентификатор : 2
    Формат : AC-3
    Формат/Информация : Audio Coding 3
    Расширение режима : CM (complete main)
    Параметр Endianness формата : Big
    Идентификатор кодека : A_AC3
    Продолжительность : 1 ч. 54 м.
    Вид битрейта : Постоянный
    Битрейт : 384 Кбит/сек
    Каналы : 6 каналов
    Расположение каналов : Front: L C R, Side: L R, LFE
    Частота : 48, 0 КГц
    Частота кадров : 31, 250 кадров/сек (1536 spf)
    Метод сжатия : С потерями
    Размер потока : 314 Мбайт (7%)
    Заголовок : Дубляж - iTunes
    Язык : Russian
    Default : Да
    Forced : Нет
    Текст
    Идентификатор : 3
    Формат : UTF-8
    Идентификатор кодека : S_TEXT/UTF8
    Идентификатор кодека/Информация : UTF-8 Plain Text
    Заголовок : русские, форсированные
    Язык : Russian
    Default : Да
    Forced : Нет
    Меню
    00: 00: 00.000 : en: 00: 00: 00.000
    00: 10: 13.780 : en: 00: 10: 13.780
    00: 19: 00.931 : en: 00: 19: 00.931
    00: 30: 21.111 : en: 00: 30: 21.111
    00: 40: 02.525 : en: 00: 40: 02.525
    00: 50: 56.178 : en: 00: 50: 56.178
    00: 59: 34.362 : en: 00: 59: 34.362
    01: 10: 59.380 : en: 01: 10: 59.380
    01: 20: 08.929 : en: 01: 20: 08.929
    01: 32: 06.020 : en: 01: 32: 06.020
    01: 39: 36.220 : en: 01: 39: 36.220
    01: 48: 19.118 : en: 01: 48: 19.118


    Онлайн видео Парни со стволами


    Размер скачиваемого торрента: 4.69 GB (5040827214 Bytes)

    Парни со стволами/War Dogs (2016) BDRip 720p от Scarabey | iTunes
    загрузка...
    Рейтинг →
     (голосов: 1, оценка 4/5, голосовать можно 1 раз )

    Другие торренты по теме:

  • Парни со стволами / War Dogs (2016) TS | D
  • Парни со стволами / War Dogs (2016) BDRip 720p | Line
  • Парни со стволами / War Dogs (2016) BDRip 1080p | iTunes
  • Парни со стволами / War Dogs (2016) BDRip 720p | iTunes
  • Парни со стволами / War Dogs (2016) BDRip-AVC от VickNet | iTunes
  • Парни со стволами / War Dogs (2016) BDRip 1080p от New-Team qqss44 | iTunes
  • Парни со стволами / War Dogs (2016) BDRip-AVC от R.G.Resident | iTunes
  • Парни со стволами / War Dogs (2016) BDRip от MegaPeer | iTunes


    • Комментарии (0):

      Информация

      Информация

        Посетители, находящиеся в группе Гости, не могут оставлять комментарии в данной новости.

        ↓ Меню



        ↓ Опрос

        А Вы добавили сайт в закладки?
        Да
        Не


        Top 10 за месяц (Фильмы)