.
Авторизация | Регистрация
Хочешь лучшие торренты? Добавь свой email!
Добавить
» » Седьмой пациент / Patient Seven (2016) WEB-DLRip-AVC от k.e.n | L1 скачать торрент бесплатно




    Седьмой пациент / Patient Seven (2016) WEB-DLRip-AVC от k.e.n | L1 скачать торрент бесплатно

    Опубликовал: Админ | Дата: 15-11-2016, 05:00 | Просмотров: 23



    Создали в: США, Terror Films
    Категория жанра: Ужасы, Триллер
    Главный режиссер: Дэнни Дрэйвен, Пол Дэвис
    Актеры: Эми Смарт, Элфи Оуэн-Аллен, Айден Каллахэн, Кристиан Брассингтон

    Описание фильма

    В центре фильма доктор Маркус, известный психиатр, который выбрал 6 тяжелых психически больных и опасных пациентов из психиатрической больницы, чтобы взять интервью в рамках исследования для своей новой книги, но вскоре узнает, что есть один пациент, который связывает их всех вместе — седьмой пациент.

    Время просмотра: 01: 55: 37
    Качество фильма видео: WEB-DLRip-AVC
    Перевод текста: Любительский (одноголосый, закадровый)ХиХиДок
    Субтитры: Английский
    Информация о видео: AVC/H.264, 1024x428 (2.35: 1), 23.976 fps, 1 420 Kbps (0.130 bit/pixel)
    Информация о звуке: AC-3, 48.0 KHz, 6 ch, 384 Kbps, CBR (Russian)
    Mediainfo:

    Формат : Matroska
    Версия формата : Version 2
    Размер файла : 1, 46 Гбайт
    Продолжительность : 1 ч. 55 м.
    Общий поток : 1805 Кбит/сек
    Название фильма : Patient.Seven.2016
    Дата кодирования : UTC 2016-11-14 15: 00: 50
    Программа кодирования : mkvmerge v5.3.0 (;I could have danced;) built on Feb 9 2012 10: 38: 07
    Библиотека кодирования : libebml v1.2.3 + libmatroska v1.3.0
    Attachment : Yes
    Видео
    Идентификатор : 1
    Формат : AVC
    Формат/Информация : Advanced Video Codec
    Профиль формата : High@L4.1
    Параметр CABAC формата : Да
    Параметр ReFrames формата : 11 кадров
    Идентификатор кодека : V_MPEG4/ISO/AVC
    Продолжительность : 1 ч. 55 м.
    Битрейт : 1420 Кбит/сек
    Ширина : 1024 пикселя
    Высота : 428 пикселей
    Соотношение сторон : 2, 40: 1
    Режим частоты кадров : Постоянный
    Частота кадров : 23, 976 кадра/сек
    Цветовое пространство : YUV
    Субдискретизация насыщенности : 4: 2: 0
    Битовая глубина : 8 бит
    Тип развёртки : Прогрессивная
    Бит/(Пиксели*Кадры) : 0.135
    Размер потока : 1, 12 Гбайт (77%)
    Библиотека кодирования : x264 core 146 r2538 121396c
    Настройки программы : cabac=1/ref=11/deblock=1: -2: -1/analyse=0x3: 0x133/me=umh/subme=10/psy=1/psy_rd=1.05: 0.10/mixed_ref=1/me_range=32/chroma_me=1/trellis=2/8x8dct=1/cqm=0/deadzone=21, 11/fast_pskip=0/chroma_qp_offset=-3/threads=12/lookahead_threads=3/sliced_threads=0/nr=0/decimate=1/interlaced=0/bluray_compat=0/constrained_intra=0/bframes=8/b_pyramid=2/b_adapt=2/b_bias=0/direct=3/weightb=1/open_gop=0/weightp=2/keyint=240/keyint_min=23/scenecut=40/intra_refresh=0/rc=2pass/mbtree=0/bitrate=1420/ratetol=1.0/qcomp=0.60/qpmin=0/qpmax=69/qpstep=4/cplxblur=20.0/qblur=0.5/ip_ratio=1.40/pb_ratio=1.30/aq=2: 0.90
    Default : Да
    Forced : Нет
    Аудио
    Идентификатор : 2
    Формат : AC-3
    Формат/Информация : Audio Coding 3
    Расширение режима : CM (complete main)
    Параметр Endianness формата : Big
    Идентификатор кодека : A_AC3
    Продолжительность : 1 ч. 55 м.
    Вид битрейта : Постоянный
    Битрейт : 384 Кбит/сек
    Каналы : 6 каналов
    Расположение каналов : Front: L C R, Side: L R, LFE
    Частота : 48, 0 КГц
    Битовая глубина : 16 бит
    Метод сжатия : С потерями
    Размер потока : 318 Мбайт (21%)
    Заголовок : Xixidoktor
    Язык : Russian
    Default : Да
    Forced : Нет
    Текст
    Идентификатор : 3
    Формат : UTF-8
    Идентификатор кодека : S_TEXT/UTF8
    Идентификатор кодека/Информация : UTF-8 Plain Text
    Язык : English
    Default : Нет
    Forced : Нет
    Меню
    00: 00: 00.000 : en: 1
    00: 12: 36.256 : en: 2
    00: 25: 34.367 : en: 3
    00: 37: 16.610 : en: 4
    00: 50: 14.888 : en: 5
    01: 03: 24.761 : en: 6
    01: 13: 34.370 : en: 7
    01: 24: 34.238 : en: 8
    01: 38: 28.405 : en: 9
    01: 51: 15.588 : en: 10

    Скриншоты:


    Онлайн видео Седьмой пациент


    Размер скачиваемого торрента: 1.46 GB (1564876855 Bytes)

    Седьмой пациент/Patient Seven (2016) WEB-DLRip-AVC от k.e.n | L1
    загрузка...
    Рейтинг →
     (голосов: 1, оценка 5/5, голосовать можно 1 раз )

    Другие торренты по теме:

  • Седьмой пациент / Patient Seven (2016) HDRip | L1
  • Седьмой пациент / Patient Seven (2016) HDRip | L2


    • Комментарии (0):

      Информация

      Информация

        Посетители, находящиеся в группе Гости, не могут оставлять комментарии в данной новости.

        ↓ Меню



        ↓ Опрос

        А Вы добавили сайт в закладки?
        Да
        Не


        Top 10 за месяц (Фильмы)