.
Авторизация | Регистрация
Хочешь лучшие торренты? Добавь свой email!
Добавить
» » Алиса в Зазеркалье / Alice Through the Looking Glass (2016) DVD9 | Custom скачать торрент бесплатно




    Алиса в Зазеркалье / Alice Through the Looking Glass (2016) DVD9 | Custom скачать торрент бесплатно

    Опубликовал: Админ | Дата: 13-11-2016, 05:02 | Просмотров: 86


    Весна - самое время сойти с ума

    Создали в: 2016
    Создали в: США, Великобритания/Walt Disney Pictures
    Категория жанра: Фэнтези, приключения, семейный
    Главный режиссер: Джеймс Бобин
    Продюсеры: Тим Бёртон, Джо Рот, Дженнифер Тодд
    Актеры: Миа Васиковска, Джонни Депп, Хелена Бонем Картер, Энн Хэтэуэй, Саша Барон Коэн, Рис Иванс, Мэтт Лукас, Линдси Дункан, Лео Билл, Джеральдин Джеймс

    Описание фильма

    На этот раз главной героине предстоит отправиться в путешествие во времени, полное неожиданностей и ярких открытий, чтобы спасти своего друга, Безумного Шляпника.
    Перевод текста: Дублированный
    Субтитры: Английские, русские
    Дата мировой премьеры: 10 мая 2016
    Дата российской премьеры: 26 мая 2016, WDSSPR
    Дата выхода DVD релиза: 26 августа 2016, Уолт Дисней Компани СНГ
    Время просмотра: 01: 52: 51
    Качество фильма видео: DVD9
    Информация о видео: MPEG-2, 720x480@853x480 (NTSC 16: 9), ~6400 Кбит/сек
    Информация о звуке 1: AC3 5.1, 448 Кбит/сек Английский - оригинал
    Информация о звуке 2: AC3 2.0, 192 Кбит/сек Английский - описательный
    Информация о звуке 3: AC3 5.1, 448 Кбит/сек Русский - дублированный
    Доп. материалы: Семь раз отмерь: Костюмы страны чудес, Ролики
    DVDInfo:
    Title: Alice Through the Looking Glass (2016) DVD9 NTSC
    Size: 6.64 Gb ( 6 963 740, 00 KBytes ) - DVD-9
    Enabled regions: 1, 2, 3, 4, 5, 6, 7, 8
    VTS_01 :
    Play Length: 00: 00: 00+00: 01: 41+00: 03: 18+{00: 00: 00}+00: 06: 25+{00: 05: 01}+{00: 00: 00}
    Video: NTSC 16: 9 (720x480) VBR, Auto Letterboxed
    Audio:
    English (Dolby AC3, 6 ch)
    VTS_02 :
    Play Length: 00: 00: 00+{00: 00: 00}
    Video: NTSC 16: 9 (720x480) VBR, Auto PanScan
    VTS_03 :
    Play Length: 00: 00: 00
    Video: NTSC 16: 9 (720x480) VBR, Auto PanScan
    VTS_04 :
    Play Length: 00: 00: 13
    Video: NTSC 16: 9 (720x480) VBR, Auto Letterboxed
    Audio:
    English (Dolby AC3, 6 ch)
    VTS_05 :
    Play Length: 00: 00: 00
    Video: NTSC 4: 3 (720x480) VBR
    VTS_06 :
    Play Length: 00: 00: 00+{00: 00: 00}+{00: 00: 00}
    Video: NTSC 16: 9 (720x480) VBR, Auto Letterboxed
    VTS_07 :
    Play Length: 00: 04: 25+00: 00: 00+{00: 00: 00}
    Video: NTSC 16: 9 (720x480) VBR, Auto Letterboxed
    Audio:
    English (Dolby AC3, 2 ch)
    Subtitles:
    English
    Russian
    VTS_08 :
    Play Length: 00: 00: 00
    Video: NTSC 16: 9 (720x480) VBR, Auto Letterboxed
    VTS_09 :
    Play Length: 00: 00: 00+{00: 00: 00}
    Video: NTSC 16: 9 (720x480) VBR, Auto Letterboxed
    VTS_10 :
    Play Length: 00: 00: 00
    Video: NTSC 4: 3 (720x480) VBR
    VTS_11 :
    Play Length: 01: 52: 51+00: 00: 02+00: 00: 03
    Video: NTSC 16: 9 (720x480) VBR, Auto Letterboxed
    Audio:
    English (Dolby AC3, 6 ch)
    English (Dolby AC3, 2 ch)
    Russian (Dolby AC3, 6 ch)
    Subtitles:
    English
    Russian
    English
    Russian
    * Menus Information *
    VIDEO_TS Menu
    Video:
    NTSC 16: 9 (720x480) VBR
    Auto PanScan
    Audio:
    Not specified (Dolby AC3, 2 ch)
    English Language Unit :
    Title Menu
    VTS_01 Menu
    Video:
    NTSC 4: 3 (720x480) VBR
    Auto PanScan, Auto Letterboxed
    English Language Unit :
    Root Menu
    VTS_02 Menu
    Video:
    NTSC 16: 9 (720x480) VBR
    Auto PanScan
    English Language Unit :
    Root Menu
    VTS_03 Menu
    Video:
    NTSC 16: 9 (720x480) VBR
    Auto PanScan
    English Language Unit :
    Root Menu
    VTS_04 Menu
    Video:
    NTSC 16: 9 (720x480) VBR
    Auto PanScan
    English Language Unit :
    Root Menu
    Angle menu
    Chapter (PTT) Menu
    VTS_05 Menu
    Video:
    NTSC 16: 9 (720x480) VBR
    Auto PanScan
    Audio:
    Not specified (Dolby AC3, 2 ch)
    English Language Unit :
    Root Menu
    Angle menu
    VTS_06 Menu
    Video:
    NTSC 16: 9 (720x480) VBR
    Auto Letterboxed
    English Language Unit :
    Root Menu
    VTS_07 Menu
    Video:
    NTSC 4: 3 (720x480) VBR
    Auto PanScan, Auto Letterboxed
    English Language Unit :
    Root Menu
    VTS_08 Menu
    Video:
    NTSC 4: 3 (720x480) VBR
    English Language Unit :
    Root Menu
    VTS_09 Menu
    Video:
    NTSC 4: 3 (720x480) VBR
    English Language Unit :
    Root Menu
    VTS_10 Menu
    Video:
    NTSC 16: 9 (720x480) VBR
    Auto Letterboxed
    English Language Unit :
    Root Menu
    VTS_11 Menu
    Video:
    NTSC 4: 3 (720x480) VBR
    Auto PanScan, Auto Letterboxed
    English Language Unit :
    Root Menu
    Chapter (PTT) Menu
    MediaInfo:
    Общее
    Полное имя : F: ВидеоAlice Through the Looking Glass (2016) DVD9 NTSCVIDEO_TSVTS_11_3.VOB
    Формат : MPEG-PS
    Размер файла : 1024 Мбайт
    Продолжительность : 18 м.
    Режим общего битрейта : Переменный
    Общий поток : 7713 Кбит/сек
    Видео
    Идентификатор : 224 (0xE0)
    Формат : MPEG Video
    Версия формата : Version 2
    Профиль формата : Main@Main
    Параметр BVOP формата : Да
    Параметр матрицы формата : Выборочная
    Параметр GOP формата : Variable
    Продолжительность : 18 м.
    Вид битрейта : Переменный
    Битрейт : 6471 Кбит/сек
    Максимальный битрейт : 9800 Кбит/сек
    Ширина : 720 пикселей
    Высота : 480 пикселей
    Соотношение сторон : 16: 9
    Частота кадров : 23, 976 (24000/1001) кадра/сек
    Стандарт вещания : Component
    Цветовое пространство : YUV
    Субдискретизация насыщенности : 4: 2: 0
    Битовая глубина : 8 бит
    Тип развёртки : Прогрессивная
    Порядок развёртки : 2: 3 Pulldown
    Метод сжатия : С потерями
    Бит/(Пиксели*Кадры) : 0.781
    Временной код первого кадра : 01: 38: 31;26
    Оригинал временного кода : Group of pictures t_head
    Размер потока : 859 Мбайт (84%)
    Основные цвета : BT.601 NTSC
    Характеристики трансфера : BT.601
    Коэффициенты матрицы : BT.601
    Аудио #1
    Идентификатор : 189 (0xBD)-128 (0x80)
    Формат : AC-3
    Формат/Информация : Audio Coding 3
    Расширение режима : CM (complete main)
    Параметр Endianness формата : Big
    Режим смешивания : DVD-Video
    Продолжительность : 18 м.
    Вид битрейта : Постоянный
    Битрейт : 448 Кбит/сек
    Каналы : 6 каналов
    Расположение каналов : Front: L C R, Side: L R, LFE
    Частота : 48, 0 КГц
    Частота кадров : 31, 250 кадров/сек (1536 spf)
    Метод сжатия : С потерями
    Задержка видео : -607 мс.
    Размер потока : 59, 5 Мбайт (6%)
    Аудио #2
    Идентификатор : 189 (0xBD)-129 (0x81)
    Формат : AC-3
    Формат/Информация : Audio Coding 3
    Профиль формата : Dolby Digital
    Расширение режима : CM (complete main)
    Параметр Endianness формата : Big
    Режим смешивания : DVD-Video
    Продолжительность : 18 м.
    Вид битрейта : Постоянный
    Битрейт : 192 Кбит/сек
    Каналы : 2 канала
    Расположение каналов : Front: L R
    Частота : 48, 0 КГц
    Частота кадров : 31, 250 кадров/сек (1536 spf)
    Метод сжатия : С потерями
    Задержка видео : -575 мс.
    Размер потока : 25, 5 Мбайт (2%)
    Аудио #3
    Идентификатор : 189 (0xBD)-130 (0x82)
    Формат : AC-3
    Формат/Информация : Audio Coding 3
    Расширение режима : CM (complete main)
    Параметр Endianness формата : Big
    Режим смешивания : DVD-Video
    Продолжительность : 18 м.
    Вид битрейта : Постоянный
    Битрейт : 448 Кбит/сек
    Каналы : 6 каналов
    Расположение каналов : Front: L C R, Side: L R, LFE
    Частота : 48, 0 КГц
    Частота кадров : 31, 250 кадров/сек (1536 spf)
    Метод сжатия : С потерями
    Задержка видео : -607 мс.
    Размер потока : 59, 5 Мбайт (6%)
    Текст #1
    Идентификатор : 189 (0xBD)-32 (0x20)
    Формат : RLE
    Формат/Информация : Run-length encoding
    Режим смешивания : DVD-Video
    Продолжительность : 18 м.
    Задержка видео : 1 с. 551 мс.
    Текст #2
    Идентификатор : 189 (0xBD)-33 (0x21)
    Формат : RLE
    Формат/Информация : Run-length encoding
    Режим смешивания : DVD-Video
    Продолжительность : 18 м.
    Задержка видео : 1 с. 151 мс.
    Текст #3
    Идентификатор : 224 (0xE0)-CC3
    Формат : EIA-608
    Режим смешивания, доп. информация : Muxed in Video #1
    Продолжительность : 18 м.
    Вид битрейта : Постоянный
    Размер потока : 0, 00 байт (0%)
    Меню
    Продолжительность : 18 м.
    Доп. информация:
    Исходником послужил лицензионный DVD9 из-за рубежа. Французскую звуковую дорожку заменил на русскую вместе с субтитрами. Испанскую дорогу удалил.
    Предупреждающие надписи скрыл.
    Часть доп. материалов переведены русскими субтитрами.
    Использовались программы: MKVExtractGUI2, UsEac3to, Sony Vegas, PgcDemux, DVD ReMake Pro, Adobe PhotoShop, MuxMan, MaestroSBT, DVDSubEdit.
    Скриншоты меню:


    Скриншоты:

    Залил: Саша 1992

    Онлайн видео Алиса в Зазеркалье


    Размер скачиваемого торрента: 6.64 GB (7130869760 Bytes)

    Алиса в Зазеркалье/Alice Through the Looking Glass (2016) DVD9 | Custom
    загрузка...
    Рейтинг →
     (голосов: 1, оценка 5/5, голосовать можно 1 раз )

    Другие торренты по теме:

  • Льюис Кэрролл - Алиса в Стране Чудес. Алиса в Зазеркалье (1978) DJVU скачать через торрент бесплатно
  • Алиса в Cтране Чудес / Алиса в Зазеркалье (1981-1982) DVDRip-AVC от R.G.RealMT | Реставрация
  • Алиса в Зазеркалье / Alice Through the Looking Glass (2016) TC | CAM
  • Алиса в Зазеркалье / Alice Through the Looking Glass (2016) TC 720p | D
  • Алиса в Зазеркалье / Alice Through the Looking Glass (2016) WEB-DL 1080р | iTunes
  • Алиса в Зазеркалье / Alice Through the Looking Glass (2016) WEB-DLRip | iTunes
  • Алиса в Зазеркалье / Alice Through the Looking Glass (2016) WEB-DLRip от Kaztorrents | КПК | iTunes
  • Алиса в Зазеркалье / Alice Through the Looking Glass (2016) WEB-DLRip от MegaPeer | iTunes


    • Комментарии (0):

      Информация

      Информация

        Посетители, находящиеся в группе Гости, не могут оставлять комментарии в данной новости.

        ↓ Меню



        ↓ Опрос

        А Вы добавили сайт в закладки?
        Да
        Не


        Top 10 за месяц (Фильмы)