.
Авторизация | Регистрация
Хочешь лучшие торренты? Добавь свой email!
Добавить
» » Токио. Небо / Tokyo.Sora (2002) BDRemux 1080p | L2 скачать торрент бесплатно




    Токио. Небо / Tokyo.Sora (2002) BDRemux 1080p | L2 скачать торрент бесплатно

    Опубликовал: Админ | Дата: 13-11-2016, 05:02 | Просмотров: 70



    Токио. Небо / Tokyo.Sora
    Снималось в: Япония
    Создали в: Domani, Guadeloupe
    Создали в: 2002
    Категория жанра: драма
    Время просмотра: 01: 26: 44
    Главный режиссер: Хироси Исикава

    Актеры
    Юка Итая, Харука Игава, Манами Хондзё, Кейси Нагацука, Аяно Накамура, Хидэтоси Нисидзима, Сон Сэйка, Икуно Такаги
    Описание: Фильм повествует о шести женщинах, живущих в Токио. Суровая реальность, хрупкие мечты, одиночество, едва различимая романтика. Только небо над Токио может увидеть всё это...

    Перевод текста: Любительский (двухголосый, закадровый) | den904 DeadSno
    Субтитры: русские, английские
    Качество фильма: BDRemux 1080p
    Тип видео: МКV
    Информация о видео кодек: AVC
    Информация о звуке кодек: DTS
    Информация о видео: 1920x1080 (16: 9), 29.970 fps, MPEG-4 AVC ~37.8 Мbps avg
    Информация о звуке №1: 48.0 kHz, Digital Theater Systems, 2/0 (L, R) ch, ~1510 kbps/16-bit | RUS
    Информация о звуке №2: 48.0 kHz, Digital Theater Systems, 2/0 (L, R) ch, ~1413 kbps/16-bit | JAP
    Тип видео субтитров: UTF-8 Plain Text
    Дата премьеры (мир): 26 октября 2002
    Релиз подготовил:
    BDRemux Info

    Уникальный идентификатор : 199900260432780040448291779093246032454 (0x966363C661F8C144950E9E28D9D0BA46)
    Полное имя : Tokyo.Sora.2002.BDRemux.1080i.by_vedigo.mkv
    Формат : Matroska
    Версия формата : Version 4/Version 2
    Размер файла : 24, 7 Гбайт
    Продолжительность : 1 ч. 26 м.
    Режим общего битрейта : Переменный
    Общий поток : 40, 7 Мбит/сек
    Название фильма : Tokyo.Sora.2002.BDRemux.1080i.by_ vedigo
    Дата кодирования : UTC 2016-11-07 10: 34: 58
    Программа кодирования : mkvmerge v9.5.0 (;Quiet Fire;) 64bit
    Библиотека кодирования : libebml v1.3.4 + libmatroska v1.4.5
    Видео
    Идентификатор : 1
    Формат : AVC
    Формат/Информация : Advanced Video Codec
    Профиль формата : High@L4.1
    Параметр CABAC формата : Да
    Параметр ReFrames формата : 4 кадра
    Идентификатор кодека : V_MPEG4/ISO/AVC
    Продолжительность : 1 ч. 26 м.
    Вид битрейта : Переменный
    Битрейт : 37, 8 Мбит/сек
    Максимальный битрейт : 39, 0 Мбит/сек
    Ширина : 1920 пикселей
    Высота : 1080 пикселей
    Соотношение сторон : 16: 9
    Режим частоты кадров : Постоянный
    Частота кадров : 29, 970 (30000/1001) кадров/сек
    Цветовое пространство : YUV
    Субдискретизация насыщенности : 4: 2: 0
    Битовая глубина : 8 бит
    Тип развёртки : MBAFF
    Метод сохранения типа развёртки : Чередующиеся поля
    Порядок развёртки : Верхнее поле первое
    Бит/(Пиксели*Кадры) : 0.608
    Размер потока : 22, 9 Гбайт (93%)
    Заголовок : Tokyo.Sora.2002.BDRemux.1080i.by_vedigo
    Default : Да
    Forced : Нет
    Аудио #1
    Идентификатор : 2
    Формат : DTS
    Формат/Информация : Digital Theater Systems
    Режим : 16
    Параметр Endianness формата : Big
    Идентификатор кодека : A_DTS
    Продолжительность : 1 ч. 26 м.
    Вид битрейта : Постоянный
    Битрейт : 1510 Кбит/сек
    Каналы : 2 канала
    Расположение каналов : Front: L R
    Частота : 48, 0 КГц
    Частота кадров : 93, 750 кадра/сек (512 spf)
    Битовая глубина : 16 бит
    Метод сжатия : С потерями
    Размер потока : 937 Мбайт (4%)
    Заголовок : DVO @ DeadSno Den904
    Язык : Russian
    Default : Да
    Forced : Нет
    Аудио #2
    Идентификатор : 3
    Формат : DTS
    Формат/Информация : Digital Theater Systems
    Режим : 16
    Параметр Endianness формата : Big
    Идентификатор кодека : A_DTS
    Продолжительность : 1 ч. 26 м.
    Вид битрейта : Постоянный
    Битрейт : 1413 Кбит/сек
    Каналы : 2 канала
    Расположение каналов : Front: L R
    Частота : 48, 0 КГц
    Частота кадров : 93, 750 кадра/сек (512 spf)
    Битовая глубина : 16 бит
    Метод сжатия : С потерями
    Размер потока : 877 Мбайт (3%)
    Заголовок : Original
    Язык : Japanese
    Default : Нет
    Forced : Нет
    Текст #1
    Идентификатор : 4
    Формат : UTF-8
    Идентификатор кодека : S_TEXT/UTF8
    Идентификатор кодека/Информация : UTF-8 Plain Text
    Продолжительность : 1 ч. 23 м.
    Битрейт : 22 бит/сек
    Count of elements : 486
    Размер потока : 13, 6 Кбайт (0%)
    Заголовок : Subtitle rus @ Студия Колобок
    Язык : Russian
    Default : Нет
    Forced : Нет
    Текст #2
    Идентификатор : 5
    Формат : UTF-8
    Идентификатор кодека : S_TEXT/UTF8
    Идентификатор кодека/Информация : UTF-8 Plain Text
    Продолжительность : 1 ч. 23 м.
    Битрейт : 13 бит/сек
    Count of elements : 491
    Размер потока : 8, 16 Кбайт (0%)
    Заголовок : Subtitle eng
    Язык : English
    Default : Нет
    Forced : Нет
    Скриншоты

    Залил: Zha-4k-e

    Онлайн видео Токио. Небо


    Размер скачиваемого торрента: 24.65 GB (26470913199 Bytes)

    Токио. Небо/Tokyo.Sora (2002) BDRemux 1080p | L2
    загрузка...
    Рейтинг →
     (голосов: 1, оценка 3/5, голосовать можно 1 раз )

    Другие торренты по теме:

  • Токио. Небо / Tokyo.Sora (2002) BDRip 720p | L2


    • Комментарии (0):

      Информация

      Информация

        Посетители, находящиеся в группе Гости, не могут оставлять комментарии в данной новости.

        ↓ Меню



        ↓ Опрос

        А Вы добавили сайт в закладки?
        Да
        Не


        Top 10 за месяц (Фильмы)