.
Авторизация | Регистрация
Хочешь лучшие торренты? Добавь свой email!
Добавить
» » Добро пожаловать в Музпорт / Welcome to Mooseport (2004) HDTV 1080i от MediaClub | P скачать торрент бесплатно




    Добро пожаловать в Музпорт / Welcome to Mooseport (2004) HDTV 1080i от MediaClub | P скачать торрент бесплатно

    Опубликовал: Админ | Дата: 13-11-2016, 05:00 | Просмотров: 24



    Детально о кино
    Русское название: Добро пожаловать в Музпорт
    Русское название в мировом прокате: Welcome to Mooseport
    Создали в: 2004
    Категория жанра: Мелодрама, комедия
    Главный режиссер: Дональд Питри

    Актеры
    Джин Хэкмен, Рэй Романо, Марша Гей Харден, Мора Тирни, Кристин Барански, Фред Сэвэдж, Рип Торн, Джун Скуиб, Уэйн Робсон, Джон Ротмен, Карл Прюнер, Дэвид Макнивен, Джеки Ричардсон, Пол Бейтс, Рейган Пастернак

    Сюжет фильма

    Действия картины разворачиваются в городке под названием Музпорт, когда одним прекрасным днем в него приезжает бывший президент Америки Монро Кол. А тут к тому же в городке назрел кризис власти, срочно необходим новый мэр и нет кандидатуры лучшей, чем бывший президент, а впрочем, других кандидатов и вовсе нет. И все бы было хорошо да только Монро допускают одну серьёзную ошибку приударив за девушкой Хэнди…

    Снималось в: США, Германия
    Киностудия: 20th Century Fox Film Corporation, Intermedia Films, Mediastream Vierte Film GmbH Co. Vermarktungs KG, Mooseport Productions
    Время просмотра: 01: 42: 24
    Перевод текста: Профессиональный многоголосый закадровый
    Файл
    Кодек для видео: h.264
    Качество фильма: HDTV 1080i
    Информация о видео: MPEG-4 AVC, ~ 8280 Кбит/с, 1920x1080, 25.000 кадр/с
    Информация о звуке:
    Русский (AC3, 6 ch, 384 Кбит/с)/Профессиональный многоголосый
    Русский (MP2, 2 ch, 192 Кбит/с)/Профессиональный многоголосый
    Семпл
    О релизе
    Автор релиза - Silverok, первоисточник - Первый канал HD

    MI
    General
    ID : 1 (0x1)
    Complete name : D: uTorrentDobro.pozhalovat.v.Muzport.2004.HDTV.1080i.MediaClub..ts
    Format : MPEG-TS
    File size : 6.67 GiB
    Duration : 1 h 42 min
    Overall bit rate mode : Variable
    Overall bit rate : 9 322 kb/s
    Video
    ID : 1904 (0x770)
    Menu ID : 904 (0x388)
    Format : AVC
    Format/Info : Advanced Video Codec
    Format profile : High@L4
    Format settings, CABAC : Yes
    Format settings, ReFrames : 3 frames
    Format settings, GOP : M=4, N=36
    Codec ID : 27
    Duration : 1 h 42 min
    Bit rate : 8 280 kb/s
    Width : 1 920 pixels
    Height : 1 080 pixels
    Display aspect ratio : 16: 9
    Frame rate : 25.000 FPS
    Standard : Component
    Color space : YUV
    Chroma subsampling : 4: 2: 0
    Bit depth : 8 bits
    Scan type : Interlaced
    Scan type, store method : Separated fields
    Scan order : Top Field First
    Bits/(Pixel*Frame) : 0.160
    Stream size : 5.92 GiB (89%)
    Color range : Limited
    Color primaries : BT.709
    Transfer characteristics : BT.709
    Matrix coefficients : BT.709
    Audio #1
    ID : 2904 (0xB58)
    Menu ID : 904 (0x388)
    Format : AC-3
    Format/Info : Audio Coding 3
    Mode extension : CM (complete main)
    Format settings, Endianness : Big
    Codec ID : 6
    Duration : 1 h 42 min
    Bit rate mode : Constant
    Bit rate : 384 kb/s
    Channel(s) : 6 channels
    Channel positions : Front: L C R, Side: L R, LFE
    Sampling rate : 48.0 kHz
    Frame rate : 31.250 FPS (1536 spf)
    Compression mode : Lossy
    Stream size : 281 MiB (4%)
    Language : Russian
    Audio #2
    ID : 2905 (0xB59)
    Menu ID : 904 (0x388)
    Format : MPEG Audio
    Format version : Version 1
    Format profile : Layer 2
    Codec ID : 3
    Duration : 1 h 42 min
    Bit rate mode : Constant
    Bit rate : 192 kb/s
    Channel(s) : 2 channels
    Sampling rate : 48.0 kHz
    Compression mode : Lossy
    Stream size : 141 MiB (2%)
    Language : Russian

    Скриншоты

    Релиз подготовил: | Silverok
    Залил: silverina64

    Онлайн видео Добро пожаловать в Музпорт


    Размер скачиваемого торрента: 6.67 GB (7160021172 Bytes)

    Добро пожаловать в Музпорт/Welcome to Mooseport (2004) HDTV 1080i от MediaClub | P
    загрузка...
    Рейтинг →
     (голосов: 1, оценка 4/5, голосовать можно 1 раз )

    Другие торренты по теме:

  • Добро пожаловать в капкан / Добро пожаловать в Панч / Welcome to the Punch (2013) BDRip от HQCLUB
  • Добро пожаловать в капкан / Добро пожаловать в Панч / Welcome to the Punch (2013) BDRip от HQCLUB | Лицензия
  • Добро пожаловать в рай / Into the Blue (2005) BDRip 1080p от FfClub
  • Добро пожаловать в Музпорт / Welcome to Mooseport (2004) HDTVRip 720p от Youtracker | P, L2
  • Добро пожаловать в Лэйквью! / Lakeview Terrace (2008) BDRip от HQ-ViDEO
  • Добро пожаловать в рай! / Into the Blue (2005) BDRip 1080p | D, P2, A
  • Добро пожаловать в Лос-Анджелес / Welcome to L.A. (1976) DVDRip-AVC от Temperest
  • Добро пожаловать в Лэйквью / Lakeview Terrace (2008) BDRip-AVC от ExKinoRay


    • Комментарии (0):

      Информация

      Информация

        Посетители, находящиеся в группе Гости, не могут оставлять комментарии в данной новости.

        ↓ Меню



        ↓ Опрос

        А Вы добавили сайт в закладки?
        Да
        Не


        Top 10 за месяц (Фильмы)