.
Авторизация | Регистрация
Хочешь лучшие торренты? Добавь свой email!
Добавить
» » Девять жизней / Nine Lives (2016) BDRip 1080p от ExKinoRay | iTunes скачать торрент бесплатно




    Девять жизней / Nine Lives (2016) BDRip 1080p от ExKinoRay | iTunes скачать торрент бесплатно

    Опубликовал: Админ | Дата: 12-11-2016, 05:01 | Просмотров: 135



    Детально о кино
    Русское название: Девять жизней
    Русское название в мировом прокате: Nine Lives
    Создали в: 2016
    Категория жанра: Фэнтези, комедия, семейный
    Главный режиссер: Бэрри Зонненфельд

    Актеры
    Кевин Спейси, Дженнифер Гарнер, Робби Амелл, Шерил Хайнс, Марк Консуэлос, Малина Вайсман, Кристофер Уокен, Талита Бейтман, Тедди Сирс, Джей Пэттерсон
    О фильме:
    Том Бренд — миллиардер-трудоголик с чудинкой. Он с головой погружен в работу и немного выпал из семейной жизни — даже подарок дочери он покупает в последний момент. Ребекка мечтает о настоящем коте, и как бы Том ни презирал животных, он отправляется в зоомагазин, где выбирает самого роскошного кота по кличке Мистер Пушистые Штаны. В спешке на праздник дочери Том попадает в аварию, а очнувшись, обнаруживает себя в теле этого самого кота. Пока Том-человек отсыпается в больнице, Том-Пушистые Штаны вынужден на собственной шкуре испытать все прелести кошачьей жизни и вернуть любовь семьи, чтобы не остаться навсегда в роли питомца. Благо, жена и дочь принимают кота как родного. Но как заставить их разглядеть в Мистере Пушистые Штаны раскаявшегося отца семейства?

    Снималось в: Франция, Китай
    Киностудия: EuropaCorp, Fundamental Films, Transfilm
    Время просмотра: 01: 26: 50
    Перевод текста: Дублированный | iTunes
    Файл
    Кодек для видео: MPEG-4
    Качество фильма: BDRip 1080p
    Информация о видео: 1920x1040, 18.6 Mbit/s, 23.976 fps
    Информация о звуке:
    Информация о звуке #01: 48 kHz, AC3, 5.1, 384 Kbps | Дублированный | iTunes |
    Информация о звуке #02: 48 kHz, DTS, 5.1, 1510 kbps | Оригинал |
    Субтитры: Английские
    MI
    General
    Unique ID : 235581751548475185994600352935214804269 (0xB13B651C7B36E15C92E62E3C423F6D2D)
    Complete name : H: VideoNine.Lives.2016.BDRip.1080p.ExKinoRay.mkv
    Format : Matroska
    Format version : Version 4/Version 2
    File size : 12.4 GiB
    Duration : 1 h 26 min
    Overall bit rate : 20.5 Mb/s
    Movie name : ***селезень***
    Encoded date : UTC 2016-11-10 03: 56: 29
    Writing application : mkvmerge v8.3.0 (;Over the Horizon;) 64bit
    Writing library : libebml v1.3.1 + libmatroska v1.4.2
    Video
    ID : 1
    Format : AVC
    Format/Info : Advanced Video Codec
    Format profile : High@L4.1
    Format settings, CABAC : Yes
    Format settings, ReFrames : 4 frames
    Codec ID : V_MPEG4/ISO/AVC
    Duration : 1 h 26 min
    Bit rate : 18.6 Mb/s
    Width : 1 920 pixels
    Height : 1 040 pixels
    Display aspect ratio : 1.85: 1
    Frame rate mode : Constant
    Frame rate : 23.976 (24000/1001) FPS
    Color space : YUV
    Chroma subsampling : 4: 2: 0
    Bit depth : 8 bits
    Scan type : Progressive
    Bits/(Pixel*Frame) : 0.388
    Stream size : 11.3 GiB (91%)
    Title : Nine.Lives.2016.***селезень***
    Writing library : x264 core 142 r2431+42 c69a006 tMod 8-bit@4: 2: 0 X86_64
    Encoding settings : cabac=1/ref=4/deblock=1: -2: -2/analyse=0x3: 0x113/me=umh/subme=10/psy=1/fade_compensate=0.50/psy_rd=0.90: 0.00/mixed_ref=1/me_range=48/chroma_me=1/trellis=2/8x8dct=1/cqm=0/deadzone=21, 11/fast_pskip=0/chroma_qp_offset=-2/threads=12/lookahead_threads=1/sliced_threads=0/nr=0/decimate=1/interlaced=0/bluray_compat=0/constrained_intra=0/fgo=0/bframes=6/b_pyramid=2/b_adapt=2/b_bias=0/direct=3/weightb=1/open_gop=0/weightp=2/keyint=240/keyint_min=23/scenecut=40/intra_refresh=0/rc_lookahead=120/rc=crf/mbtree=1/crf=14.9000/qcomp=0.60/qpmin=0: 0: 0/qpmax=34: 34: 34/qpstep=4/vbv_maxrate=30000/vbv_bufsize=38000/crf_max=0.0/nal_hrd=none/filler=0/ip_ratio=1.40/aq=4: 0.90/aq-sensitivity=10.00/aq-factor=1.00: 1.00: 1.00/aq2=0/aq3=0
    Language : English
    Default : Yes
    Forced : No
    Color range : Limited
    Color primaries : BT.709
    Transfer characteristics : BT.709
    Matrix coefficients : BT.709
    Audio #1
    ID : 2
    Format : AC-3
    Format/Info : Audio Coding 3
    Mode extension : CM (complete main)
    Format settings, Endianness : Big
    Codec ID : A_AC3
    Duration : 1 h 26 min
    Bit rate mode : Constant
    Bit rate : 384 kb/s
    Channel(s) : 6 channels
    Channel positions : Front: L C R, Side: L R, LFE
    Sampling rate : 48.0 kHz
    Frame rate : 31.250 FPS (1536 spf)
    Bit depth : 16 bits
    Compression mode : Lossy
    Stream size : 238 MiB (2%)
    Title : iTunes
    Language : Russian
    Default : Yes
    Forced : No
    Audio #2
    ID : 3
    Format : DTS
    Format/Info : Digital Theater Systems
    Mode : 16
    Format settings, Endianness : Big
    Codec ID : A_DTS
    Duration : 1 h 26 min
    Bit rate mode : Constant
    Bit rate : 1 509 kb/s
    Channel(s) : 6 channels
    Channel positions : Front: L C R, Side: L R, LFE
    Sampling rate : 48.0 kHz
    Frame rate : 93.750 FPS (512 spf)
    Bit depth : 24 bits
    Compression mode : Lossy
    Stream size : 937 MiB (7%)
    Title : Original
    Language : English
    Default : No
    Forced : No
    Text #1
    ID : 4
    Format : UTF-8
    Codec ID : S_TEXT/UTF8
    Codec ID/Info : UTF-8 Plain Text
    Duration : 1 h 20 min
    Bit rate : 70 b/s
    Count of elements : 1402
    Stream size : 41.5 KiB (0%)
    Title : Full
    Language : English
    Default : No
    Forced : No
    Text #2
    ID : 5
    Format : UTF-8
    Codec ID : S_TEXT/UTF8
    Codec ID/Info : UTF-8 Plain Text
    Duration : 1 h 20 min
    Bit rate : 78 b/s
    Count of elements : 1602
    Stream size : 46.1 KiB (0%)
    Title : SDH
    Language : English
    Default : No
    Forced : No
    Menu
    00: 00: 00.000 : en: 00: 00: 00.000
    00: 09: 57.472 : en: 00: 09: 57.472
    00: 20: 21.011 : en: 00: 20: 21.011
    00: 30: 52.851 : en: 00: 30: 52.851
    00: 39: 22.277 : en: 00: 39: 22.277
    00: 49: 29.300 : en: 00: 49: 29.300
    01: 00: 11.775 : en: 01: 00: 11.775
    01: 09: 54.649 : en: 01: 09: 54.649
    01: 19: 27.888 : en: 01: 19: 27.888


    Релиз подготовил: Автор релиза:

    Онлайн видео Девять жизней


    Размер скачиваемого торрента: 12.42 GB (13340523712 Bytes)

    Девять жизней/Nine Lives (2016) BDRip 1080p от ExKinoRay | iTunes
    загрузка...
    Рейтинг →
     (голосов: 1, оценка 3/5, голосовать можно 1 раз )

    Другие торренты по теме:

  • Девять жизней кота Фрица / The Nine Lives of Fritz the Cat (1974) DVDRip | A
  • Девять жизней / Unstoppable (2004) BDRip от HQCLUB
  • Девять жизней / Nine Lives (2004) DVDRip скачать через торрент бесплатно
  • Девять жизней / Unstoppable (2004) BDRip 720p от MediaClub | P скачать через торрент бесплатно
  • Девять жизней Томаса Катца / Die neun leben des Tomas Katz (2000) DVDRip скачать через торрент бесплатно
  • Девять жизней Рождества / The Nine Lives of Christmas (2014) HDTVRip-AVC | Sub скачать через торрент бесплатно
  • Девять жизней / Nine Lives (2016) BDRip 720p | iTunes
  • Девять жизней / Nine Lives (2016) HDRip | iTunes


    • Комментарии (0):

      Информация

      Информация

        Посетители, находящиеся в группе Гости, не могут оставлять комментарии в данной новости.

        ↓ Меню



        ↓ Опрос

        А Вы добавили сайт в закладки?
        Да
        Не


        Top 10 за месяц (Фильмы)